Наркотик / Dope (2015) BDRip 720p | P

 
Автор Сообщение

BOSS ®

Пол:

Стаж: 2 года 1 месяц

Сообщений: 3748

Откуда: ODESSA



Награды: 20 (Подробнее)

Mega Releaser 3 (Количество: 1) Top Seeder 4 (Количество: 1) Top Seeder 2 (Количество: 1)
Торрент-статистика

Создавать темы 22-Ноя-2015 19:40

[Цитировать]

Информация о фильме
Название: Наркотик
Оригинальное название: Dope
Страна: США
Студия: Forest Whitaker's Significant Productions, IamOTHER Entertainment, Revolt Films
Жанр: драма, комедия, криминал
Год выпуска: 2015
Продолжительность: 01:43:18
Перевод: Профессиональный (многоголосый закадровый)
Cубтитры: английские
Оригинальная аудиодорожка: английский
Режиссер: Рик Фамуйива / Rick Famuyiwa
В ролях: Раким Мэйерс, Блейк Андерсон, Брюс Битти, Де’андре Бондс, Джулиан Брэнд, Куинси Браун, Кирси Клемонс, Кимберли Элиз, Рик Фокс, Кристофер Гленн...
Описание: В центре истории подросток, мечтающий учиться в Гарварде, однако живет он в преступном района Инглвуда, откуда выбраться не так уж и просто.

Тип релиза: BDRip 720p
Контейнер: MKV
Видео: MPEG-4 AVC, 6465 Кбит/с, 1280x534, 23,976 fps
Аудио: Rus, AC3, 384 kb/s (6 ch), 48 kHz
Аудио 2: Eng, AC3, 640 kb/s (6 ch), 48 kHz
Формат субтитров: softsub (SRT)

MediaInfo

x264 [info]: frame I:1392 Avg QP:13.52 size:140218
x264 [info]: frame P:32777 Avg QP:14.69 size: 60750
x264 [info]: frame B:114443 Avg QP:16.75 size: 25684
x264 [info]: consecutive B-frames: 2.1% 4.1% 8.4% 19.7% 17.4% 38.7% 5.0% 1.4% 1.2% 0.7% 1.2%
Format : Matroska
Format version : Version 4 / Version 2
File size : 5.51 GiB
Duration : 1h 43mn
Overall bit rate : 7 642 Kbps
Movie name : Наркотик. (Tonik)
Encoded date : UTC 2015-11-22 17:26:29
Writing application : mkvmerge v7.1.0 ('Good Love') 64bit built on Jul 27 2014 13:06:55
Writing library : libebml v1.3.0 + libmatroska v1.4.1
_STATISTICS_WRITING_APP : mkvmerge v7.1.0 ('Good Love') 64bit built on Jul 27 2014 13:06:55
_STATISTICS_WRITING_DATE_UTC : 2015-11-22 17:26:29
_STATISTICS_TAGS : BPS DURATION NUMBER_OF_FRAMES NUMBER_OF_BYTES
DURATION : 01:43:12.576000000
NUMBER_OF_FRAMES : 193518
NUMBER_OF_BYTES : 297243648
Video
ID : 1
Format : AVC
Format/Info : Advanced Video Codec
Format profile : High@L4.1
Format settings, CABAC : Yes
Format settings, ReFrames : 12 frames
Codec ID : V_MPEG4/ISO/AVC
Duration : 1h 43mn
Bit rate : 6 465 Kbps
Width : 1 280 pixels
Height : 534 pixels
Display aspect ratio : 2.40:1
Frame rate mode : Constant
Frame rate : 23.976 fps
Color space : YUV
Chroma subsampling : 4:2:0
Bit depth : 8 bits
Scan type : Progressive
Bits/(Pixel*Frame) : 0.395
Stream size : 4.67 GiB (85%)
Writing library : x264 core 148 r2597+53 5548565 t_mod_Custom [8-bit@all X86_64]
Encoding settings : cabac=1 / ref=12 / deblock=1:-3:-3 / analyse=0x3:0x133 / me=tesa / subme=10 / psy=1 / fade_compensate=0.00 / psy_rd=0.90:0.00 / mixed_ref=1 / me_range=32 / chroma_me=1 / trellis=2 / 8x8dct=1 / cqm=0 / deadzone=21,11 / fast_pskip=0 / chroma_qp_offset=-2 / threads=12 / lookahead_threads=3 / sliced_threads=0 / nr=0 / decimate=1 / interlaced=0 / bluray_compat=0 / constrained_intra=0 / fgo=0 / bframes=10 / b_pyramid=2 / b_adapt=2 / b_bias=0 / direct=3 / weightb=1 / open_gop=0 / weightp=2 / keyint=241 / keyint_min=23 / scenecut=40 / intra_refresh=0 / rc_lookahead=60 / rc=crf / mbtree=0 / crf=15.5000 / qcomp=0.70 / qpmin=0:0:0 / qpmax=69:69:69 / qpstep=4 / vbv_maxrate=50000 / vbv_bufsize=62500 / crf_max=0.0 / nal_hrd=none / filler=0 / ip_ratio=1.40 / pb_ratio=1.30 / aq=3:0.80 / aq-sensitivity=10.00 / aq-factor=1.00:1.00:1.00 / aq2=0 / aq3=0
Language : English
Default : Yes
Forced : No
_STATISTICS_WRITING_APP : mkvmerge v7.1.0 ('Good Love') 64bit built on Jul 27 2014 13:06:55
_STATISTICS_WRITING_DATE_UTC : 2015-11-22 17:26:29
_STATISTICS_TAGS : BPS DURATION NUMBER_OF_FRAMES NUMBER_OF_BYTES
DURATION : 01:43:18.359000000
NUMBER_OF_FRAMES : 148612
NUMBER_OF_BYTES : 5125717550
Audio #1
ID : 2
Format : AC-3
Format/Info : Audio Coding 3
Mode extension : CM (complete main)
Format settings, Endianness : Big
Codec ID : A_AC3
Duration : 1h 43mn
Bit rate mode : Constant
Bit rate : 384 Kbps
Channel(s) : 6 channels
Channel positions : Front: L C R, Side: L R, LFE
Sampling rate : 48.0 KHz
Bit depth : 16 bits
Compression mode : Lossy
Stream size : 284 MiB (5%)
Language : Russian
Default : Yes
Forced : No
Audio #2
ID : 3
Format : AC-3
Format/Info : Audio Coding 3
Mode extension : CM (complete main)
Format settings, Endianness : Big
Codec ID : A_AC3
Duration : 1h 43mn
Bit rate mode : Constant
Bit rate : 640 Kbps
Channel(s) : 6 channels
Channel positions : Front: L C R, Side: L R, LFE
Sampling rate : 48.0 KHz
Bit depth : 16 bits
Compression mode : Lossy
Stream size : 473 MiB (8%)
Language : English
Default : No
Forced : No
Text
ID : 4
Format : UTF-8
Codec ID : S_TEXT/UTF8
Codec ID/Info : UTF-8 Plain Text
Language : English
Default : No
Forced : No
Menu
00:00:00.000 : en:00:00:00.000
00:06:04.072 : en:00:06:04.072
00:09:34.532 : en:00:09:34.532
00:15:05.363 : en:00:15:05.363
00:19:57.405 : en:00:19:57.405
00:24:38.977 : en:00:24:38.977
00:27:59.678 : en:00:27:59.678
00:32:43.503 : en:00:32:43.503
00:37:22.782 : en:00:37:22.782
00:41:45.253 : en:00:41:45.253
00:46:18.025 : en:00:46:18.025
00:52:19.511 : en:00:52:19.511
00:59:15.427 : en:00:59:15.427
01:04:28.823 : en:01:04:28.823
01:09:18.654 : en:01:09:18.654
01:14:49.110 : en:01:14:49.110
01:20:27.031 : en:01:20:27.031
01:25:07.144 : en:01:25:07.144
01:31:30.819 : en:01:31:30.819
01:38:09.133 : en:01:38:09.133

Скриншоты

[Профиль] [ЛС]
Показать сообщения:    

Текущее время: Сегодня 23:29

Часовой пояс: GMT



Вы не можете начинать темы
Вы не можете отвечать на сообщения
Вы не можете редактировать свои сообщения
Вы не можете удалять свои сообщения
Вы не можете голосовать в опросах
Вы не можете прикреплять файлы к сообщениям
Вы не можете скачивать файлы