Наркотик / Dope (2015) BDRip 1080p

 
Автор Сообщение

Russian Mafia ®

Пол:

Стаж: 1 год 8 месяцев

Сообщений: 4256



Награды: 10 (Подробнее)

Mega Seeder 4 (Количество: 1) Mega Seeder 3 (Количество: 1) Top Releaser 4 (Количество: 1)
Торрент-статистика

Создавать темы 20-Окт-2015 18:54

[Цитировать]

Информация о фильме
b]Название:
Наркотик
Оригинальное название: Dope
Год выпуска: 2015
Жанр: Драма, комедия, криминал
Выпущено: США, Forest Whitaker's Significant Productions, IamOTHER Entertainment, Revolt Films
Режиссер: Рик Фамуйива
В ролях: Раким Мэйерс, Блейк Андерсон, Брюс Битти, Де’андре Бондс, Джулиан Брэнд, Куинси Браун, Кирси Клемонс, Кимберли Элиз, Рик Фокс, Кристофер Гленн
Продолжительность: 01:43:18
Перевод: Профессиональный многоголосый
О фильме: Действие фильма разворачивается в 90-е годы в Инглвуде. В центре сюжета — школьник по имени Малкольм и парочка его друзей Джиб и Дигги. Малкольм является поклонником хип-хопа и мечтает однажды попасть в Гарвард. Однако реальность такова, что грезам Малкольма предстоит каждый день сталкиваться с суровой реальностью....

Файл
Формат: MKV
Качество: BDRip (1080p)
Видео: MPEG-4 AVC, 9665 Кбит/с, 1920x800
Аудио:
1. Русский (АС3, 2 ch, 192 Кбит/с)
2. Английский (АС3, 6 ch, 640 Кбит/с)
Субтитры: Английские

МедиаИнфо

Формат : Matroska
Версия формата : Version 2
Размер файла : 7,57 Гбайт
Продолжительность : 1 ч. 43 м.
Общий поток : 10,5 Мбит/сек
Название фильма : ~V ad~
Дата кодирования : UTC 2015-10-20 16:21:35
Программа кодирования : mkvmerge v6.5.0 ('Isn't she lovely') built on Oct 20 2013 12:50:05
Библиотека кодирования : libebml v1.3.0 + libmatroska v1.4.1
Видео
Идентификатор : 1
Формат : AVC
Формат/Информация : Advanced Video Codec
Профиль формата : High@L4.1
Параметр CABAC формата : Да
Параметр ReFrames формата : 5 кадров
Идентификатор кодека : V_MPEG4/ISO/AVC
Продолжительность : 1 ч. 43 м.
Битрейт : 9665 Кбит/сек
Ширина : 1920 пикселей
Высота : 800 пикселей
Соотношение сторон : 2,40:1
Режим частоты кадров : Постоянный
Частота кадров : 23,976 кадра/сек
Цветовое пространство : YUV
Субдискретизация насыщенности : 4:2:0
Битовая глубина : 8 бит
Тип развёртки : Прогрессивная
Бит/(Пиксели*Кадры) : 0.262
Размер потока : 6,82 Гбайт (90%)
Заголовок : ~V~
Библиотека кодирования : x264 core 148 r2579+50 65f745f t_mod_Custom [8-bit@all X86_64]
Настройки программы : cabac=1 / ref=5 / deblock=1:-3:-3 / analyse=0x3:0x133 / me=umh / subme=11 / psy=1 / fade_compensate=0.00 / psy_rd=1.05:0.00 / mixed_ref=1 / me_range=32 / chroma_me=1 / trellis=2 / 8x8dct=1 / cqm=0 / deadzone=21,11 / fast_pskip=0 / chroma_qp_offset=-2 / threads=12 / lookahead_threads=1 / sliced_threads=0 / nr=0 / decimate=0 / interlaced=0 / bluray_compat=0 / constrained_intra=0 / fgo=0 / bframes=9 / b_pyramid=2 / b_adapt=2 / b_bias=0 / direct=3 / weightb=1 / open_gop=0 / weightp=2 / keyint=240 / keyint_min=23 / scenecut=40 / intra_refresh=0 / rc=2pass / mbtree=0 / bitrate=9665 / ratetol=1.0 / qcomp=0.60 / qpmin=0:0:0 / qpmax=69:69:69 / qpstep=4 / cplxblur=20.0 / qblur=0.5 / ip_ratio=1.40 / pb_ratio=1.30 / aq=1:0.70 / aq-sensitivity=11.00 / aq-factor=1.00:1.00:1.00 / aq2=1:0.60 / aq2-sensitivity=13.00 / aq2-factor=1.00:1.00:1.00 / aq3=1:[0.60:0.60]:[0.60:0.60]:[0.60:0.60]:[0.60:0.60] / aq3-sensitivity=9.00 / aq3-factor=[1.00:1.00]:[1.00:1.00]:[1.00:1.00] / aq3-boundary=192:64:24
Язык : English
Default : Да
Forced : Нет
Аудио #1
Идентификатор : 2
Формат : AC-3
Формат/Информация : Audio Coding 3
Расширение режима : CM (complete main)
Параметр Endianness формата : Big
Идентификатор кодека : A_AC3
Продолжительность : 1 ч. 43 м.
Вид битрейта : Постоянный
Битрейт : 192 Кбит/сек
Каналы : 2 канала
Расположение каналов : Front: L R
Частота : 48,0 КГц
Метод сжатия : С потерями
Размер потока : 142 Мбайт (2%)
Язык : Russian
Default : Да
Forced : Да
Аудио #2
Идентификатор : 3
Формат : AC-3
Формат/Информация : Audio Coding 3
Расширение режима : CM (complete main)
Параметр Endianness формата : Big
Идентификатор кодека : A_AC3
Продолжительность : 1 ч. 43 м.
Вид битрейта : Постоянный
Битрейт : 640 Кбит/сек
Каналы : 6 каналов
Расположение каналов : Front: L C R, Side: L R, LFE
Частота : 48,0 КГц
Метод сжатия : С потерями
Размер потока : 473 Мбайт (6%)
Язык : English
Default : Нет
Forced : Нет
Текст
Идентификатор : 4
Формат : UTF-8
Идентификатор кодека : S_TEXT/UTF8
Идентификатор кодека/Информация : UTF-8 Plain Text
Язык : English
Default : Нет
Forced : Нет
Меню
00:00:00.000 : en:Chapter 01
00:06:03.738 : en:Chapter 02
00:09:34.532 : en:Chapter 03
00:15:05.362 : en:Chapter 04
00:19:57.404 : en:Chapter 05
00:24:38.977 : en:Chapter 06
00:27:59.678 : en:Chapter 07
00:32:43.503 : en:Chapter 08
00:37:22.782 : en:Chapter 09
00:41:45.252 : en:Chapter 10
00:46:18.025 : en:Chapter 11
00:52:19.261 : en:Chapter 12
00:59:15.426 : en:Chapter 13
01:04:28.781 : en:Chapter 14
01:09:18.654 : en:Chapter 15
01:14:49.109 : en:Chapter 16
01:20:27.030 : en:Chapter 17
01:25:07.143 : en:Chapter 18
01:31:30.818 : en:Chapter 19
01:38:09.133 : en:Chapter 20

х264

x264 [info]: frame I:1310 Avg QP:15.04 size:234420
x264 [info]: frame P:29479 Avg QP:17.52 size: 91625
x264 [info]: frame B:117824 Avg QP:19.16 size: 38009

Скриншоты


[Профиль] [ЛС]
Показать сообщения:    

Текущее время: Сегодня 16:42

Часовой пояс: GMT



Вы не можете начинать темы
Вы не можете отвечать на сообщения
Вы не можете редактировать свои сообщения
Вы не можете удалять свои сообщения
Вы не можете голосовать в опросах
Вы не можете прикреплять файлы к сообщениям
Вы не можете скачивать файлы