Наркополис / Narcopolis (2015) BDRip 720p | L1

 
Автор Сообщение

BOSS ®

Пол:

Стаж: 2 года 1 месяц

Сообщений: 3735

Откуда: ODESSA



Награды: 20 (Подробнее)

За внесенный вклад в развитие сайта (Количество: 1) Top Keeper 1 (Количество: 1) Top Releaser 4 (Количество: 1)
Торрент-статистика

Создавать темы 22-Мар-2016 21:22

[Цитировать]

Информация о фильме
Название: Наркополис
Оригинальное название: Narcopolis
Год выхода: 2015
Жанр: фантастика, триллер, детектив
Режиссер: Justin Trefgarne
В ролях: Джеймс Кэллис, Керри Шейл, Гарри Ллойд, Элоди Юнг, Эллиот Кауэн, Марк Рэмси, Роберт Баферст, Молли Гейсфорд, Louis Trefgarne, Косима Шоу
О фильме: В недалёком будущем многое изменилось. Технологии совершили огромный скачок, а правительство легализовало все виды увеселительных наркотиков. Полицейский нового порядка в Наркополисе Фрэнк Гривз занимается контролем за соблюдением законов о наркотических веществах, пресекая любые попытки распространения несертифицированных веществ на улицах и поддерживая продуктивную деятельность огромных корпораций, зарабатывающих миллиарды долларов на популярном товаре. Обычное расследование о передозировке парня от неизвестного наркотика, приводит Френка к корпорации Амбро, занимающуюся противозаконным испытаниями на людях. Его отстраняют от дела без видимых причин, но напористый коп продолжает самостоятельное расследование, ведущее его к шокирующему знанию, которое может изменить весь мир.

Выпущено: Великобритания / T Squared Films
Продолжительность: 01:35:44
Озвучивание: Любительское (одноголосое) [Хихикающий доктор]
Файл
Формат: MKV
Качество: BDRip 720p
Видео: MPEG-4 AVC, 4574 kb/s, 1280x534
Аудио: Russian: AC3, 192 kb/s (2 ch) / English: AC3, 640 kb/s (6 ch)
Субтитры: English

MI

Format : Matroska
Format version : Version 2
File size : 3.62 GiB
Duration : 1h 35mn
Overall bit rate : 5 411 Kbps
Encoded date : UTC 2016-03-22 18:27:39
Writing application : mkvmerge v7.8.0 ('River Man') 32bit built on Apr 3 2015 12:11:22
Writing library : libebml v1.3.1 + libmatroska v1.4.2
Video
ID : 1
Format : AVC
Format/Info : Advanced Video Codec
Format profile : High@L4.1
Format settings, CABAC : Yes
Format settings, ReFrames : 9 frames
Codec ID : V_MPEG4/ISO/AVC
Duration : 1h 35mn
Bit rate : 4 574 Kbps
Width : 1 280 pixels
Height : 534 pixels
Display aspect ratio : 2.40:1
Frame rate mode : Constant
Frame rate : 23.976 fps
Color space : YUV
Chroma subsampling : 4:2:0
Bit depth : 8 bits
Scan type : Progressive
Bits/(Pixel*Frame) : 0.279
Stream size : 2.99 GiB (83%)
Writing library : x264 core 130 r2273 b3065e6
Encoding settings : cabac=1 / ref=9 / deblock=1:-3:-3 / analyse=0x3:0x113 / me=umh / subme=11 / psy=1 / psy_rd=1.00:0.20 / mixed_ref=1 / me_range=32 / chroma_me=1 / trellis=2 / 8x8dct=1 / cqm=0 / deadzone=21,11 / fast_pskip=0 / chroma_qp_offset=-3 / threads=6 / lookahead_threads=1 / sliced_threads=0 / nr=0 / decimate=0 / interlaced=0 / bluray_compat=0 / constrained_intra=0 / bframes=8 / b_pyramid=2 / b_adapt=2 / b_bias=0 / direct=3 / weightb=1 / open_gop=0 / weightp=2 / keyint=250 / keyint_min=23 / scenecut=40 / intra_refresh=0 / rc_lookahead=40 / rc=2pass / mbtree=0 / bitrate=4574 / ratetol=1.0 / qcomp=0.60 / qpmin=0 / qpmax=69 / qpstep=4 / cplxblur=20.0 / qblur=0.5 / vbv_maxrate=50000 / vbv_bufsize=50000 / nal_hrd=none / ip_ratio=1.40 / pb_ratio=1.30 / aq=1:1.00
Language : English
Default : Yes
Forced : No
Audio #1
ID : 2
Format : AC-3
Format/Info : Audio Coding 3
Mode extension : CM (complete main)
Format settings, Endianness : Big
Codec ID : A_AC3
Duration : 1h 35mn
Bit rate mode : Constant
Bit rate : 192 Kbps
Channel(s) : 2 channels
Channel positions : Front: L R
Sampling rate : 48.0 KHz
Bit depth : 16 bits
Compression mode : Lossy
Stream size : 131 MiB (4%)
Language : Russian
Default : Yes
Forced : No
Audio #2
ID : 3
Format : AC-3
Format/Info : Audio Coding 3
Mode extension : CM (complete main)
Format settings, Endianness : Big
Codec ID : A_AC3
Duration : 1h 35mn
Bit rate mode : Constant
Bit rate : 640 Kbps
Channel(s) : 6 channels
Channel positions : Front: L C R, Side: L R, LFE
Sampling rate : 48.0 KHz
Bit depth : 16 bits
Compression mode : Lossy
Stream size : 438 MiB (12%)
Language : English
Default : No
Forced : No
Text
ID : 4
Format : PGS
Muxing mode : zlib
Codec ID : S_HDMV/PGS
Codec ID/Info : Picture based subtitle format used on BDs/HD-DVDs
Language : English
Default : No
Forced : No
Menu
00:00:00.000 : en:Chapter 01
00:05:15.565 : en:Chapter 02
00:11:28.312 : en:Chapter 03
00:17:47.316 : en:Chapter 04
00:24:54.910 : en:Chapter 05
00:30:41.756 : en:Chapter 06
00:36:19.260 : en:Chapter 07
00:41:12.678 : en:Chapter 08
00:48:24.735 : en:Chapter 09
00:55:05.844 : en:Chapter 10
00:59:59.846 : en:Chapter 11
01:07:17.074 : en:Chapter 12
01:14:49.902 : en:Chapter 13
01:18:12.312 : en:Chapter 14
01:23:50.984 : en:Chapter 15
01:30:35.930 : en:Chapter 16

Скриншоты




[Профиль] [ЛС]
Показать сообщения:    

Текущее время: Сегодня 22:09

Часовой пояс: GMT



Вы не можете начинать темы
Вы не можете отвечать на сообщения
Вы не можете редактировать свои сообщения
Вы не можете удалять свои сообщения
Вы не можете голосовать в опросах
Вы не можете прикреплять файлы к сообщениям
Вы не можете скачивать файлы