Наркокультура / Narco Cultura (Шол Шварц)[2013, Документальный, криминал,HDRip] AVO

 
Автор Сообщение

sergej644 ®

Пол:

Стаж: 4 года 11 месяцев

Сообщений: 6046

Откуда: Soviet Union



Награды: Нет

Торрент-статистика

Создавать темы 11-Авг-2014 12:06

[Цитировать]

-Наркокультура / Narco Cultura (2013) HDRip [H.264] - Русское название: Наркокультура
Оригинальное название: Narco Cultura
Год выпуска: 2013
Выпущено: США, Мексика, Ocean Size Pictures, Parts and Labor
Жанр: Документальный, криминал
Описание: Мексиканский пограничный город Сьюдад-Хуарес находится непосредственно рядом с техасским городом Эль-Пасо. С каждым годом все больше и больше растет число жизней, потерянных в результате беспощадных убийств наркокартелей. Наркодилеры в этих местах — это новые герои массовой культуры, причем по обе стороны границы.
Перевод: Любительский (jasinpapa), одноголосый (PashaUP)
Субтитры: Вшитые отключаемые
Язык субтитров: Русские, английские, испанские
Режиссер: Шол Шварц
Продюсер: Тодд Хагопиан, Ларс Кнудсен, Джей Ван Хой

Дата мировой премьеры: 21 января 2013, США, Кинофестиваль «Сандэнс»
Продолжительность: 01:42:19
Видеокодек: MPEG-4 AVC/H.264
Битрейт видео: ~2 165 kb/s
Размер кадра: 1024x576
Качество видео: HDRip [H.264]
Аудио 1: Русский, AC3, 6 ch, 448 kb/s
Аудио 2: Испанский, AC3, 6 ch, 384 kb/s

MediaInfo

General
Unique ID : 211431692942024395593574790311406453708 (0x9F10434AFC8B65C9A13AFAD3333BC3CC)
Complete name : I:\Торренты\Фильмы\Документальные\Наркокультура.mkv
Format : Matroska
Format version : Version 2
File size : 2.14 GiB
Duration : 1h 42mn
Overall bit rate : 2 996 Kbps
Movie name : Narco Cultura 2013 from ExKinoRay
Encoded date : UTC 2014-08-10 19:40:13
Writing application : mkvmerge v4.9.1 ('Ich will') built on Jul 11 2011 23:53:15
Writing library : libebml v1.2.1 + libmatroska v1.1.1
Video
ID : 1
Format : AVC
Format/Info : Advanced Video Codec
Format profile : [url=mailto:High@L4.1]High@L4.1[/url]
Format settings, CABAC : Yes
Format settings, ReFrames : 8 frames
Codec ID : V_MPEG4/ISO/AVC
Duration : 1h 42mn
Bit rate : 2 165 Kbps
Width : 1 024 pixels
Height : 576 pixels
Display aspect ratio : 16:9
Frame rate mode : Constant
Frame rate : 23.976 fps
Color space : YUV
Chroma subsampling : 4:2:0
Bit depth : 8 bits
Scan type : Progressive
Bits/(Pixel*Frame) : 0.153
Stream size : 1.50 GiB (70%)
Title : Enigma-Vladislav71
Writing library : x264 core 116 r2044 392e762
Encoding settings : cabac=1 / ref=8 / deblock=1:-2:-2 / analyse=0x3:0x113 / me=umh / subme=9 / psy=1 / psy_rd=1.00:0.20 / mixed_ref=1 / me_range=32 / chroma_me=1 / trellis=2 / 8x8dct=1 / cqm=0 / deadzone=21,11 / fast_pskip=0 / chroma_qp_offset=-3 / threads=12 / sliced_threads=0 / nr=0 / decimate=0 / interlaced=0 / bluray_compat=0 / constrained_intra=0 / bframes=9 / b_pyramid=2 / b_adapt=2 / b_bias=0 / direct=3 / weightb=1 / open_gop=0 / weightp=2 / keyint=240 / keyint_min=23 / scenecut=40 / intra_refresh=0 / rc=2pass / mbtree=0 / bitrate=2165 / ratetol=1.0 / qcomp=0.60 / qpmin=0 / qpmax=69 / qpstep=4 / cplxblur=20.0 / qblur=0.5 / ip_ratio=1.40 / pb_ratio=1.30 / aq=1:1.00
Default : Yes
Forced : No
Audio #1
ID : 2
Format : AC-3
Format/Info : Audio Coding 3
Mode extension : CM (complete main)
Format settings, Endianness : Big
Codec ID : A_AC3
Duration : 1h 42mn
Bit rate mode : Constant
Bit rate : 448 Kbps
Channel(s) : 6 channels
Channel positions : Front: L C R, Side: L R, LFE
Sampling rate : 48.0 KHz
Bit depth : 16 bits
Compression mode : Lossy
Stream size : 328 MiB (15%)
Title : PashaUP
Language : Russian
Default : Yes
Forced : No
Audio #2
ID : 3
Format : AC-3
Format/Info : Audio Coding 3
Mode extension : CM (complete main)
Format settings, Endianness : Big
Codec ID : A_AC3
Duration : 1h 42mn
Bit rate mode : Constant
Bit rate : 384 Kbps
Channel(s) : 6 channels
Channel positions : Front: L C R, Side: L R, LFE
Sampling rate : 48.0 KHz
Bit depth : 16 bits
Compression mode : Lossy
Stream size : 281 MiB (13%)
Language : Spanish
Default : No
Forced : No
Text #1
ID : 4
Format : UTF-8
Codec ID : S_TEXT/UTF8
Codec ID/Info : UTF-8 Plain Text
Language : Russian
Default : No
Forced : No
Text #2
ID : 5
Format : UTF-8
Codec ID : S_TEXT/UTF8
Codec ID/Info : UTF-8 Plain Text
Language : English
Default : No
Forced : No
Text #3
ID : 6
Format : UTF-8
Codec ID : S_TEXT/UTF8
Codec ID/Info : UTF-8 Plain Text
Language : Spanish
Default : No
Forced : No
Menu
00:00:00.000 : en:00:00:00.000
00:11:49.459 : en:00:11:49.459
00:20:10.418 : en:00:20:10.418
00:26:00.309 : en:00:26:00.309
00:32:15.350 : en:00:32:15.350
00:40:13.995 : en:00:40:13.995
00:55:53.350 : en:00:55:53.350
01:05:26.297 : en:01:05:26.297
01:14:31.008 : en:01:14:31.008
01:25:39.634 : en:01:25:39.634
01:33:45.912 : en:01:33:45.912
01:39:21.164 : en:01:39:21.164
Сохранены оригинальные чаптеры как на Blu-Ray
Скриншоты:


Время раздачи: 24\7 по возможности
[Профиль] [ЛС]
Показать сообщения:    

Текущее время: Сегодня 14:07

Часовой пояс: GMT



Вы не можете начинать темы
Вы не можете отвечать на сообщения
Вы не можете редактировать свои сообщения
Вы не можете удалять свои сообщения
Вы не можете голосовать в опросах
Вы не можете прикреплять файлы к сообщениям
Вы не можете скачивать файлы