Напряги извилины / Get Smart (Питер Сигал / Peter Segal) [2008, США, Боевик, триллер, комедия, BDRip] Dub

 
Автор Сообщение

painkiller ®

Стаж: 2 года 3 месяца

Сообщений: 582



Награды: Нет

Торрент-статистика

Создавать темы 14-Авг-2014 09:10

[Цитировать]

Напряги извилины / Get Smart
«Они любят спасать мир... по-своему»
- Год выпуска: 2008
Выпущено: США, Канада / Warner Bros. Pictures
Жанр: боевик, триллер, комедия
Продолжительность: 01:49:58
Перевод: Профессиональный (полное дублирование) BD CEE
Cубтитры: нет-Режиссер:
Питер Сигал / Peter Segal-В ролях:
Стив Карелл (Maxwell Smart), Энн Хэтэуэй (Agent 99), Алан Аркин (The Chief), Дуэйн Джонсон (Agent 23), Теренс Стэмп (Siegfried), Терри Крюс (Agent 91), Дэвид Кокнер (Larabee), Маси Ока (Bruce), Нейт Торренс (Lloyd), Джеймс Каан (The President), Билл Мюррей (Agent 13), Патрик Варбертон (Hymie)-Описание:
Ремейк комедийного сериала 60-х годов. Неуклюжие приёмы секретного агента Максвелла Смарта, взявшегося за обезвреживание группировки «Хаос», стремящейся к власти над миром, ставят операцию под угрозу. Во избежание провала командование прикрепляет к Смарту Агента 99…-Релиз групп | | IMDB | КиноПоиск | Сэмпл |-Качество: BDRip [Blu-ray Disc]
Формат: AVI
Видео: 704x400 (1.76:1), 23.976 fps, XviD build 73 ~1503 kbps avg, 0.22 bit/pixel
Аудио: 48 kHz, AC3 Dolby Digital, 3/2 (L,C,R,l,r) + LFE ch, ~384.00 kbps avg
-

Скриншоты

MediaInfo

General
Complete name                            : D:\Napryagi_izviliny_2008_BDRip_by_Dalemake.avi
Format                                   : AVI
Format/Info                              : Audio Video Interleave
File size                                : 1.46 GiB
Duration                                 : 1h 49mn
Overall bit rate                         : 1 897 Kbps
Writing application                      : VirtualDubMod 1.5.10.3 | www.virtualdub-fr.org || (build 2550/release)
Writing library                          : VirtualDubMod build 2550/release
Video
ID                                       : 0
Format                                   : MPEG-4 Visual
Format profile                           : Advanced Simple@L5
Format settings, BVOP                    : 1
Format settings, QPel                    : No
Format settings, GMC                     : No warppoints
Format settings, Matrix                  : Custom
Codec ID                                 : XVID
Codec ID/Hint                            : XviD
Duration                                 : 1h 49mn
Bit rate                                 : 1 504 Kbps
Width                                    : 704 pixels
Height                                   : 400 pixels
Display aspect ratio                     : 16:9
Frame rate                               : 23.976 fps
Color space                              : YUV
Chroma subsampling                       : 4:2:0
Bit depth                                : 8 bits
Scan type                                : Progressive
Compression mode                         : Lossy
Bits/(Pixel*Frame)                       : 0.223
Stream size                              : 1.16 GiB (79%)
Writing library                          : XviD 73
Audio
ID                                       : 1
Format                                   : AC-3
Format/Info                              : Audio Coding 3
Mode extension                           : CM (complete main)
Format settings, Endianness              : Big
Codec ID                                 : 2000
Duration                                 : 1h 49mn
Bit rate mode                            : Constant
Bit rate                                 : 384 Kbps
Channel(s)                               : 6 channels
Channel positions                        : Front: L C R, Side: L R, LFE
Sampling rate                            : 48.0 KHz
Bit depth                                : 16 bits
Compression mode                         : Lossy
Stream size                              : 302 MiB (20%)
Alignment                                : Split accross interleaves
Interleave, duration                     : 42 ms (1.00 video frame)
Interleave, preload duration             : 500 ms
-
[Профиль] [ЛС]

Создавать темы 06-Авг-2015 23:17 (спустя 11 месяцев 23 дня)

Топик был перенесен из форума Фильмы до 2014 года в форум Фильмы до 2012 года
sergej644
 

Создавать темы 12-Июн-2016 08:50 (спустя 1 год 9 месяцев)

Топик был перенесен из форума Фильмы 2011 года в форум Фильмы 2006-2008 года
Russian Mafia
 
Кто просматривает тему:

Форум Тема Автор Размер
Зарубежные Hoвый Человек-паук: Высокое напряжение в 3Д / The Amazing Spider-Man 2: Rise of Electro 3D (Марк Уэбб) [2014, Фэнтези, боевик, приключения, комикс, супергерой, BDremux, 1080p] BD3D TorrentFilm 34.18 GB
Фильмы 2009 года Адреналин 2: Высокое напряжение / Crank 2: High Voltage (Марк Невелдайн, Брайан Тейлор / Mark Neveldine, Brian Taylor) [2009, США, Боевик, триллер, криминал, BDRip-AVC] Dub + Sub Rus, Eng + Original... TorrentFilm 4 GB
Компьютерная литература (Программирование) Без напряга - Жвалевский А.В. - Windows 7 без напряга [2010, PDF, RUS] TorrentFilm 12 MB
Отечественные мультфильмы Высокое напряжение (Кирилл Павлов) [2010, анимационный фильм, DVDScreener] TorrentFilm 15 MB
Фантастика, фэнтези Ильин Владимир Алексеевич - Напряжение (2015) FB2 достали все 1 MB
Фильмы 2006-2008 года Напряги извилины / Get Smart (Питер Сигал / Peter Segal) [2008, США, комедия, боевик, триллер, BDRip-AVC] Dub + Subs (Rus, Eng) reversefile 746 MB
Фильмы (HD DVD, Blu-ray и BDRemux) Напряги извилины / Get Smart (Питер Сигал) [2008 г., Комедия, ремейк, пародия, Blu-Ray (1080p)]] Magnat 23.07 GB
Фильмы (HD Rips | 720p, 1080p) Новый Человек-паук: Высокое напряжение / The Amazing Spider-Man 2 (2014) BDRip 720p | Лицензия sergej644 4.15 GB
Показать сообщения:    

Текущее время: Сегодня 20:08

Часовой пояс: GMT



Вы не можете начинать темы
Вы не можете отвечать на сообщения
Вы не можете редактировать свои сообщения
Вы не можете удалять свои сообщения
Вы не можете голосовать в опросах
Вы не можете прикреплять файлы к сообщениям
Вы не можете скачивать файлы