Напрасная жертва (Владимир Янощук) [2014, Россия, драма, HDTVRip 720p]

 
Автор Сообщение

reversefile ®

Пол:

Стаж: 4 года 5 месяцев

Сообщений: 842

Откуда: ReverseFile.org



Награды: Нет

Торрент-статистика

Создавать темы 13-Авг-2014 18:26

[Цитировать]

Напрасная жертва
Выпущено: Россия, студия «Кинослово», ООО «Беркана»
Жанр: драма
Год выпуска: 2014
Продолжительность: 01:26:09
Субтитры: нет
Режиссер: Владимир Янощук
В ролях: Алина Сергеева, Семён Шкаликов, Александр Давыдов, Константин Гацалов, Анна Матюшенская, Даниил Коновалов
Описание: Бывает так, что любая мелочь может перевернуть жизнь на сто восемьдесят градусов. Вот и жизнь Нины текла привычно и уютно: любимый человек, красивый дом и впереди - безоблачное будущее. Ссора вспыхнула мгновенно – стоило Нине лишь сказать о такой желанной для неё беременности. Разъярённый Глеб, в чьи планы не входили пелёнки и бессонные ночи, вылетает из дома, но уже вскоре он возвращается совершенно потерянный и испуганный – он только что сбил человека и сбежал с места преступления. Этой ночью началась их новая жизнь...

Автор рипа / записи: fanatus
Исходник: Запись с телеканала РОССИЯ HD
Качество: HDTVRip 720p
Формат: MKV
Видео кодек: H.264
Аудио кодек: AC3
Видео: MPEG-4 AVC, 6400 kbps , 1280x720 (16:9), 25.000 fps, 0.278 bit/pixel
Аудио: AC3, 2 ch, 48 kHz, 192 kbps

MediaInfo

General
Unique ID : 192840800148122017638194071355115986745 (0x9113C982B1BB8F7EB0C6A60A549C5F39)
Complete name : E:\Naprasnaja_zhertva.2014.x264.HDTVRip.720p.fanatus.mkv
Format : Matroska
Format version : Version 2
File size : 3.97 GiB
Duration : 1h 26mn
Overall bit rate : 6 590 Kbps
Movie name : Naprasnaja zhertva (2014) - fanatus
Encoded date : UTC 2014-06-16 23:05:40
Writing application : mkvmerge v3.4.0 ('Rapunzel') сборка от May 15 2010 09:38:20
Writing library : libebml v0.8.0 + libmatroska v0.9.0
Video
ID : 1
Format : AVC
Format/Info : Advanced Video Codec
Format profile : High@L4.1
Format settings, CABAC : Yes
Format settings, ReFrames : 9 frames
Codec ID : V_MPEG4/ISO/AVC
Duration : 1h 26mn
Bit rate : 6 400 Kbps
Width : 1 280 pixels
Height : 720 pixels
Display aspect ratio : 16:9
Frame rate : 25.000 fps
Color space : YUV
Chroma subsampling : 4:2:0
Bit depth : 8 bits
Scan type : Progressive
Bits/(Pixel*Frame) : 0.278
Stream size : 3.77 GiB (95%)
Title : Naprasnaja zhertva (2014) HDTVRip (720p)
Writing library : x264 core 142 r2431 ac76440
Encoding settings : cabac=1 / ref=9 / deblock=1:-3:-3 / analyse=0x3:0x133 / me=tesa / subme=11 / psy=1 / psy_rd=1.00:0.25 / mixed_ref=1 / me_range=64 / chroma_me=1 / trellis=2 / 8x8dct=1 / cqm=0 / deadzone=21,11 / fast_pskip=0 / chroma_qp_offset=-4 / threads=16 / lookahead_threads=4 / sliced_threads=0 / nr=0 / decimate=0 / interlaced=0 / bluray_compat=0 / constrained_intra=0 / bframes=12 / b_pyramid=2 / b_adapt=2 / b_bias=0 / direct=3 / weightb=1 / open_gop=0 / weightp=2 / keyint=250 / keyint_min=25 / scenecut=40 / intra_refresh=0 / rc_lookahead=240 / rc=2pass / mbtree=1 / bitrate=6400 / ratetol=1.0 / qcomp=0.65 / qpmin=0 / qpmax=69 / qpstep=4 / cplxblur=20.0 / qblur=0.5 / ip_ratio=1.30 / aq=2:0.60
Language : Russian
Default : Yes
Forced : No
Audio
ID : 2
Format : AC-3
Format/Info : Audio Coding 3
Mode extension : CM (complete main)
Format settings, Endianness : Big
Codec ID : A_AC3
Duration : 1h 26mn
Bit rate mode : Constant
Bit rate : 192 Kbps
Channel(s) : 2 channels
Channel positions : Front: L R
Sampling rate : 48.0 KHz
Bit depth : 16 bits
Compression mode : Lossy
Stream size : 118 MiB (3%)
Language : Russian
Default : Yes
Forced : No

Скриншот c названием фильма

[Профиль] [ЛС]
Кто просматривает тему:

Показать сообщения:    

Текущее время: Сегодня 10:51

Часовой пояс: GMT



Вы не можете начинать темы
Вы не можете отвечать на сообщения
Вы не можете редактировать свои сообщения
Вы не можете удалять свои сообщения
Вы не можете голосовать в опросах
Вы не можете прикреплять файлы к сообщениям
Вы не можете скачивать файлы