Напортачили. Полный облом! / Тринадцатый этаж / Botched (Кит Райан / Kit Ryan) [2007, Германия, Ирландия, Великобритания, США, чёрная комедия, криминал, ужасы, WEB-DLRip] MVO + Original Eng

 
Автор Сообщение

TorrentFilm ®

Пол:

Стаж: 2 года

Сообщений: 7741



Награды: Нет

Торрент-статистика

Создавать темы 10-Фев-2016 00:08

[Цитировать]

Напортачили. Полный облом! / Тринадцатый этаж / Botched
Страна: Германия, Ирландия, Великобритания, США
Жанр: чёрная комедия, криминал, ужасы
Год выпуска: 2007
Продолжительность: 01:34:38
Перевод: Профессиональный (многоголосый закадровый) R5
Cубтитры: нет
Оригинальная аудиодорожка: английский

Режиссер: Кит Райан / Kit Ryan
В ролях: Стивен Дорфф, Дэвид Хип, Алан Смит, Шон Пертуи, Джэми Формен, Расселл Смит, Брона Галлахер, Норма Шихан, Джин Руни, Джейм Мюррэй, Хью О`Конор, Джофф Белл, Зак Магвайр, Эдвард Бейкер-Дьюли
Описание: Профессиональный вор по имени Ритчи проваливает своё последнее задание во Франции, где ему не удаётся похитить бриллианты (точнее, удаётся, но потом он их глупо теряет). Его босс даёт ему шанс исправиться, для чего молодому человеку предстоит отправиться в холодную Россию, в Москву, где он должен будет пробраться в здание небоскрёба и похитить в пентхаусе драгоценный крест. В помощь к Ритчи даются два русских брата-братка (толстяк и худой). Они пробираются в здание, заходят в лифт и методом манипуляций с его электронной начинкой поднимаются на самый верх, где после короткой перестрелки добывают искомую вещь и забираются в лифт, чтобы покинуть здание. Но охрана получает информацию о нападении и переправляет лифт прямиком на 13-й этаж, закрытый для общего пользования. В связи с этим трое бандитов оказываются на пустующем этаже вместе с несколькими невольными заложниками и обитающим там маньяком, который возомнил себя потомком Ивана Грозного…
Качество видео: WEB-DLRip
Формат видео: AVI
Видео: 704x400 (1.76:1), 23.976 fps, XviD build 73 ~1745 kbps avg, 0.26 bit/pixel
Аудио: 48 kHz, AC3 Dolby Digital, 3/2 (L,C,R,l,r) + LFE ch, ~448 kbps - многоголосый
Аудио: 48 kHz, AC3 Dolby Digital, 3/2 (L,C,R,l,r) + LFE ch, ~448 kbps - оригинал (отдельно)

MediaInfo

Общее
Полное имя : H:\Botched.2007.web-dlrip_[1.46]_[teko]\Botched.2007.web-dlrip_[1.46].avi
Формат : AVI
Формат/Информация : Audio Video Interleave
Размер файла : 1,46 Гбайт
Продолжительность : 1 ч. 34 м.
Общий поток : 2203 Кбит/сек
Программа кодирования : VirtualDubMod 1.5.10.3 | www.virtualdub-fr.org || (build 2550/release)
Библиотека кодирования : VirtualDubMod build 2550/release
Видео
Идентификатор : 0
Формат : MPEG-4 Visual
Профиль формата : Advanced Simple@L5
Параметр BVOP формата : 2
Параметр QPel формата : Нет
Параметр GMC формата : Без точки перехода
Параметр матрицы формата : Выборочная
Идентификатор кодека : XVID
Идентификатор кодека/Подсказка : XviD
Продолжительность : 1 ч. 34 м.
Битрейт : 1746 Кбит/сек
Ширина : 704 пикселя
Высота : 400 пикселей
Соотношение сторон : 16:9
Частота кадров : 23,976 кадра/сек
Цветовое пространство : YUV
Субдискретизация насыщенности : 4:2:0
Битовая глубина : 8 бит
Тип развёртки : Прогрессивная
Метод сжатия : С потерями
Бит/(Пиксели*Кадры) : 0.259
Размер потока : 1,15 Гбайт (79%)
Библиотека кодирования : XviD 73
Аудио
Идентификатор : 1
Формат : AC-3
Формат/Информация : Audio Coding 3
Расширение режима : CM (complete main)
Параметр Endianness формата : Big
Идентификатор кодека : 2000
Продолжительность : 1 ч. 34 м.
Вид битрейта : Постоянный
Битрейт : 448 Кбит/сек
Каналы : 6 каналов
Расположение каналов : Front: L C R, Side: L R, LFE
Частота : 48,0 КГц
Битовая глубина : 16 бит
Метод сжатия : С потерями
Размер потока : 303 Мбайт (20%)
Выравнивание : Разделение по промежуткам
Продолжительность промежутка : 42 мс. (1,00 видеокадр)
Время предзагрузки промежутка : 500 мс.
Релиз группы:
--
[Профиль] [ЛС]
Показать сообщения:    

Текущее время: Сегодня 20:59

Часовой пояс: GMT



Вы не можете начинать темы
Вы не можете отвечать на сообщения
Вы не можете редактировать свои сообщения
Вы не можете удалять свои сообщения
Вы не можете голосовать в опросах
Вы не можете прикреплять файлы к сообщениям
Вы не можете скачивать файлы