Написать любовь на её руках / To Write Love on Her Arms (Нэйтан Франковски) [2015 г., драма, биография, музыка, WEB-DLRip]

 
Автор Сообщение

AleksSin ®

Пол:

Стаж: 6 лет

Сообщений: 218



Награды: 4 (Подробнее)

Mega Seeder 2 (Количество: 1) Mega Seeder 4 (Количество: 1) Mega Seeder 1 (Количество: 1)
Торрент-статистика

Создавать темы 17-Мар-2015 15:43

[Цитировать]

Написать любовь на её руках / To Write Love on Her Arms
Год выпуска: 2015
Страна: США
Жанр: драма, биография, музыка
Продолжительность: 01:42:25
Перевод: Профессиональное (многоголосое) [iTunes]
Субтитры: нет
Режиссер: Нэйтан Франковски
В ролях: Кэт Деннингс, Чад Майкл Мюррэй, Руперт Френд, Марк Сауль, Джулиана Харкви, Дрейтон Болл, Тиффани Бэнкс, Кейли Боф, Брэд Бенедикт, Рас Блэквелл
Описание: Фильм рассказывает о девятнадцатилетней девушке по имени Рени, которая всегда любила сказки: ее идеалы — это принцессы, герои и вечно-счастливый конец. Но жизнь Рени больше похожа на страшную сказку: она борется с наркозависимостью, от которой страдает, а так же с депрессией и членовредительством. В творческой смеси художественной фантазии и суровой реальности, фильм показывает мужество и преодоление всех препятствий в жизни Рени.

Качество: WEB-DLRip [рип с WEB-DL 720p]
Формат: AVI
Видео кодек: XviD
Аудио кодек: МР3
Видео: 656x272 (2.41:1), 23.976 fps, XviD build 73 ~882 kbps avg, 0.21 bit/pixel
Audio: 48 kHz, MPEG Layer 3, 2 ch, ~128.00 kbps avg

MediaInfo

Общее
Полное имя : S:ФильмыНаписать любовь на её руках. 2015. WEB-DLRip. 745 (AleksSin).avi
Формат : AVI
Формат/Информация : Audio Video Interleave
Размер файла : 746 Мбайт
Продолжительность : 1 ч. 42 м.
Общий поток : 1019 Кбит/сек
Программа кодирования : VirtualDubMod 1.5.10.3 | www.virtualdub-fr.org || (build 2550/release)
Библиотека кодирования : VirtualDubMod build 2550/release
Видео
Идентификатор : 0
Формат : MPEG-4 Visual
Профиль формата : Advanced Simple@L5
Параметр BVOP формата : 1
Параметр QPel формата : Нет
Параметр GMC формата : Без точки перехода
Параметр матрицы формата : Выборочная
Идентификатор кодека : XVID
Идентификатор кодека/Подсказка : XviD
Продолжительность : 1 ч. 42 м.
Битрейт : 882 Кбит/сек
Ширина : 656 пикс.
Высота : 272 пикс.
Соотношение сторон : 2,40:1
Частота кадров : 23,976 кадр/сек
Цветовое пространство : YUV
Подвыборка цветности : 4:2:0
Битовая глубина : 8 бит
Тип развёртки : Прогрессивная
Метод сжатия : С потерями
Бит/(Пиксели*Кадры) : 0.206
Размер потока : 646 Мбайт (87%)
Библиотека кодирования : XviD 73
Аудио
Идентификатор : 1
Формат : MPEG Audio
Версия формата : Version 1
Профиль формата : Layer 3
Идентификатор кодека : 55
Идентификатор кодека/Подсказка : MP3
Продолжительность : 1 ч. 42 м.
Вид битрейта : Постоянный
Битрейт : 128 Кбит/сек
Каналы : 2 канала
Частота : 48,0 КГц
Метод сжатия : С потерями
Размер потока : 93,5 Мбайт (13%)
Выравнивание : Соединение по промежуткам
Продолжительность промежутка : 42 мс. (1,00 видеокадр)
Время предзагрузки промежутка : 504 ms
Библиотека кодирования : LAME3.99r
Настройки программы : -m s -V 4 -q 2 -lowpass 17 -b 128

Скриншоты

[Профиль] [ЛС]

AleksSin ®

Пол:

Стаж: 6 лет

Сообщений: 218



Награды: 4 (Подробнее)

Mega Seeder 4 (Количество: 1) Mega Seeder 2 (Количество: 1) Mega Seeder 3 (Количество: 1)
Торрент-статистика

Создавать темы 18-Мар-2015 14:21 (спустя 22 часа)

[Цитировать]

Исправил соотношение сторон. Теперь кратно 16
[Профиль] [ЛС]
Кто просматривает тему:

Форум Тема Автор Размер
Отечественные мультфильмы Как было написано первое письмо (Анатолий Кирик) [1984 г., мультфильм, DVB] TorrentFilm 268 MB
Программирование Написание игрового сервера и создание клиента на Unity3D (2016) PCRec sergej644 1.59 GB
Фильмы 2015 года Написать любовь на её руках / To Write Love on Her Arms (Нэйтан Франковски / Nathan Frankowski) [2015, США, драма, биография, музыка, WEB-DLRip] MVO (iTunes) TorrentFilm 746 MB
Фильмы 2015 года Написать любовь на её руках / To Write Love on Her Arms (Нэйтан Франковски / Nathan Frankowski) [2015, США, драма, биография, музыка, WEB-DL] Sub Rus + Original Eng TorrentFilm 1.4 GB
R.G.TorrentFilm Video Написать любовь на её руках / To Write Love on Her Arms (Нэйтан Франковски) [2015 г., драма, биография, музыка, WEB-DLRip] AleksSin 2.05 GB
Фильмы 2015 года Написать любовь на её руках / To Write Love on Her Arms (Нэйтан Франковски) [2015, драма, биография, музыка] WEB-DLRip | iTunes BOSS 1.37 GB
Отечественные мультфильмы Ненаписанное письмо (Евгений Сивоконь) [1985, рисованный мультфильм, TVRip] TorrentFilm 146 MB
Показать сообщения:    

Текущее время: Сегодня 22:10

Часовой пояс: GMT



Вы не можете начинать темы
Вы не можете отвечать на сообщения
Вы не можете редактировать свои сообщения
Вы не можете удалять свои сообщения
Вы не можете голосовать в опросах
Вы не можете прикреплять файлы к сообщениям
Вы не можете скачивать файлы