Наперекор судьбе (Вопреки всему) (6 серий из 6) / Against the Odds (Сэмми Джексон / Sammy Jackson) [2014, Документальный, война, история, HDTVRip 720p]

 
Автор Сообщение

TorrentFilm ®

Пол:

Стаж: 2 года

Сообщений: 7741



Награды: Нет

Торрент-статистика

Создавать темы 06-Июл-2015 00:05

[Цитировать]

Наперекор судьбе (Вопреки всему) (6 серий из 6) / Against the Odds
Дата/Год выпуска: 2014
Страна: США, AHC
Жанр: Документальный, война, история
Продолжительность: 6 х ~ 00:42:36
Перевод: Профессиональный (многоголосый закадровый)
Режиссер: Сэмми Джексон / Sammy Jackson
Телеканал: Discovery World HD немецкого ТВ
Описание: Рассказ о людях, проявивших потрясающую смелость, благородство, силу духа на полях сражений. Эти солдаты заглянули в лицо смерти. Численное превосходство было у врага, и он в своей победе был уверен. Но сила «военного братства» смешала все планы. Солдаты выстояли и доказали, что их победить невозможно, даже если само провидение повернулось к ним спиной.
Сериал расскажет о сражениях Второй Мировой войны (Окинава, Арденны, Тарава), Корее (Чосин), Вьетнаме (Хюэ) и Ираке (Рамади).
Каждый эпизод, содержит архивные кадры и интервью участников событий, воссоздавая картину боев с точки зрения тех, кто сражался на передовой.
Доп. информация: HDTVRip by alf62

качество: HDTVRip 720p
формат: MKV
Видео: MPEG-4 AVC, ~ 3936 Кбит/с, 1280x720
Аудио: АС3, 2 ch, 192 Кбит/с

Список выпусков/серий

1. Морпехи в Хюэ (Битва за Хюэ) / The Marines at Hue
Город Хюэ, расположенный в Южном Вьетнаме, стал местом ожесточённых сражений Вьетнамской войны. 2500 морпехов США сумели выстоять, несмотря на численное превосходство противника.
2. Эти чертовы саперы... / Those Damned Engineers
В декабре 1944 года, казалось бы, побежденные немцы тайно собрал 600 000 закаленных в боях войск, в том числе целые дивизии СС танковые, в все из наступление, чтобы захватить Антверпен, сердце цепочке поставок союзников.
3. Герои Таравы / The Heroes of Tarawa
В ноябре 1943 года вооружённые силы США провели атаку на укреплённый атолл Тарава, который на тот момент занимали японцы.
4. Битва за «Сахарную голову» / The Battle for Sugar Loaf
Во время Второй мировой рота «Чарли» проявила чудеса храбрости, взяв одну из высот Окинавы.
5. Резня на Чосинском водохранилище / Bloody George at the Chosin Reservoir
Рота морских пехотинцев, спешно переброшенная на фронт в самом начале Корейской войны, прекрасно проявила себя на полях сражений.
6. Шанс в аду: Битва за Рамади / A Chance in Hell: The Battle of Ramadi
Полковник Макфарленд подошёл к Рамади, когда Аль-Каида уже объявила этот город столицей нового халифата. Америка не стала медлить с ответом.

MediaInfo

Наперекор.судьбе.(1.серия.из.6).Морпехи.в.Хюэ.2014.720p.hdtv.x264.alf62.mkvФормат : MatroskaВерсия формата : Version 4 / Version 2Размер файла : 1,22 ГбайтПродолжительность : 41 м.Общий поток : 4211 Кбит/секДата кодирования : UTC 2015-06-24 14:56:34Программа кодирования : mkvmerge v6.6.0 ('The Edge Of The In Between') built on Dec 1 2013 17:55:00Библиотека кодирования : libebml v1.3.0 + libmatroska v1.4.1
ВидеоИдентификатор : 1Формат : AVCФормат/Информация : Advanced Video CodecПрофиль формата : High@L4.1Параметр CABAC формата : ДаПараметр ReFrames формата : 5 кадровИдентификатор кодека : V_MPEG4/ISO/AVCПродолжительность : 41 м.Битрейт : 3936 Кбит/секШирина : 1280 пикселейВысота : 720 пикселейСоотношение сторон : 16:9Режим частоты кадров : ПостоянныйЧастота кадров : 25,000 кадров/секЦветовое пространство : YUVСубдискретизация насыщенности : 4:2:0Битовая глубина : 8 битТип развёртки : ПрогрессивнаяБит/(Пиксели*Кадры) : 0.171Размер потока : 1,14 Гбайт (93%)Библиотека кодирования : x264 core 146 r2538 121396cНастройки программы : cabac=1 / ref=5 / deblock=1:-3:-3 / analyse=0x3:0x113 / me=umh / subme=7 / psy=1 / psy_rd=1.00:0.00 / mixed_ref=1 / me_range=16 / chroma_me=1 / trellis=1 / 8x8dct=1 / cqm=0 / deadzone=21,11 / fast_pskip=0 / chroma_qp_offset=-2 / threads=6 / lookahead_threads=1 / sliced_threads=0 / nr=0 / decimate=1 / interlaced=0 / bluray_compat=0 / constrained_intra=0 / bframes=3 / b_pyramid=2 / b_adapt=1 / b_bias=0 / direct=1 / weightb=1 / open_gop=0 / weightp=2 / keyint=250 / keyint_min=25 / scenecut=40 / intra_refresh=0 / rc_lookahead=40 / rc=crf / mbtree=1 / crf=20.0 / qcomp=0.60 / qpmin=0 / qpmax=69 / qpstep=4 / ip_ratio=1.40 / aq=1:1.00Язык : EnglishDefault : НетForced : Нет
АудиоИдентификатор : 2Формат : AC-3Формат/Информация : Audio Coding 3Расширение режима : CM (complete main)Параметр Endianness формата : BigИдентификатор кодека : A_AC3Продолжительность : 41 м.Вид битрейта : ПостоянныйБитрейт : 192 Кбит/секКаналы : 2 каналаРасположение каналов : Front: L RЧастота : 48,0 КГцБитовая глубина : 16 битМетод сжатия : С потерямиЗадержка видео : 250 мс.Размер потока : 57,1 Мбайт (5%)Default : ДаForced : Нет
[Профиль] [ЛС]
Показать сообщения:    

Текущее время: Сегодня 14:36

Часовой пояс: GMT



Вы не можете начинать темы
Вы не можете отвечать на сообщения
Вы не можете редактировать свои сообщения
Вы не можете удалять свои сообщения
Вы не можете голосовать в опросах
Вы не можете прикреплять файлы к сообщениям
Вы не можете скачивать файлы