Наоми / Hitpartzut X / Naomi (Эйтан Цур / Eitan Tzur) [2010, Франция, Израиль, драма, DVDRip] (creo140) + Sub Rus + Original Heb

 
Автор Сообщение

TorrentFilm ®

Пол:

Стаж: 2 года

Сообщений: 7741



Награды: Нет

Торрент-статистика

Создавать темы 27-Фев-2016 00:08

[Цитировать]

Наоми / Hitpartzut X / Naomi
Страна: Франция, Израиль
Жанр: драма
Год выпуска: 2010
Продолжительность: 01:38:38
Перевод: Субтитры - creo140
Cубтитры: русские
Оригинальная аудиодорожка: иврит

Режиссер: Эйтан Цур / Eitan Tzur
В ролях: Шухель Хадад, Рэми Хьюбергер, Мелани Перес, Йосси Поллак
Описание: Илан Бен Натан, профессор 58 лет, состоит в браке с Наоми, красивой молодой женщиной , которую он страстно любит. Однажды он узнает, что его самый большой страх стал реальностью: у Наоми есть любовник. Илан ищет совета у своей матери, и она предлагает не обращать внимания, так как сама когда-то часто изменяла мужу. Но Илан начинает следить за женой и в итоге встречается со своим соперником, художником, который живет изгоем в маленьком доме вдали от цивилизации. Обезумев от зависти и ревности, Илан видит только одно решение проблемы…
Качество видео: DVDRip
Формат видео: AVI
Видео: 704x400 (1.76:1), 25 fps, XviD build 73 ~1656 kbps avg, 0.23 bit/pixel
Аудио: 48 kHz, AC3 Dolby Digital, 3/2 (L,C,R,l,r) + LFE ch, ~448 kbps

Фрагмент субтитров

472
00:49:48,920 --> 00:49:50,751
- Привет, Наоми.
- Как у тебя дела?
473
00:49:51,040 --> 00:49:53,429
- Великолепно.
- Как Мари?
474
00:51:41,080 --> 00:51:42,274
Здравствуйте.
475
00:51:46,440 --> 00:51:48,396
Вы давно здесь?
476
00:51:50,120 --> 00:51:51,599
Они установили радио?
477
00:51:51,720 --> 00:51:52,835
Что?
478
00:51:53,960 --> 00:51:55,871
Ах, я не знаю, я здесь не работаю.
479
00:51:56,560 --> 00:52:01,156
Он был здесь раньше, я должен был
сказать ему, чтобы он принёс части
480
00:52:02,080 --> 00:52:03,069
Кто?
481
00:52:03,480 --> 00:52:06,756
Жаль, что ты не сказала ему
482
00:52:08,160 --> 00:52:10,230
Вы говорите о женщине,
которая была здесь?
483
00:52:10,480 --> 00:52:13,472
Он спросил меня, что привезти
мне из Африки.
484
00:52:14,760 --> 00:52:16,637
Он снимал там фильм о природе
485
00:52:17,600 --> 00:52:20,956
Вместо того, чтобы сказать ему,
чтобы он привез что-нибудь,
486
00:52:21,760 --> 00:52:24,752
Я сказал ему, чтобы он
не ездил на лошадях.
487
00:52:24,760 --> 00:52:26,876
Потому что он родился с больной спиной

MediaInfo

Общее
Полное имя : H:\Hitpartzut.X.2010.dvdrip_[1.46]_[teko]\Hitpartzut.X.2010.dvdrip_[1.46].avi
Формат : AVI
Формат/Информация : Audio Video Interleave
Размер файла : 1,46 Гбайт
Продолжительность : 1 ч. 38 м.
Общий поток : 2115 Кбит/сек
Программа кодирования : VirtualDubMod 1.5.10.3 | www.virtualdub-fr.org || (build 2550/release)
Библиотека кодирования : VirtualDubMod build 2550/release
Видео
Идентификатор : 0
Формат : MPEG-4 Visual
Профиль формата : Advanced Simple@L5
Параметр BVOP формата : 2
Параметр QPel формата : Нет
Параметр GMC формата : Без точки перехода
Параметр матрицы формата : Выборочная
Идентификатор кодека : XVID
Идентификатор кодека/Подсказка : XviD
Продолжительность : 1 ч. 38 м.
Битрейт : 1657 Кбит/сек
Ширина : 704 пикселя
Высота : 400 пикселей
Соотношение сторон : 16:9
Частота кадров : 25,000 кадров/сек
Цветовое пространство : YUV
Субдискретизация насыщенности : 4:2:0
Битовая глубина : 8 бит
Тип развёртки : Прогрессивная
Метод сжатия : С потерями
Бит/(Пиксели*Кадры) : 0.235
Размер потока : 1,14 Гбайт (78%)
Библиотека кодирования : XviD 73
Аудио
Идентификатор : 1
Формат : AC-3
Формат/Информация : Audio Coding 3
Расширение режима : CM (complete main)
Параметр Endianness формата : Big
Идентификатор кодека : 2000
Продолжительность : 1 ч. 38 м.
Вид битрейта : Постоянный
Битрейт : 448 Кбит/сек
Каналы : 6 каналов
Расположение каналов : Front: L C R, Side: L R, LFE
Частота : 48,0 КГц
Битовая глубина : 16 бит
Метод сжатия : С потерями
Размер потока : 316 Мбайт (21%)
Выравнивание : Разделение по промежуткам
Продолжительность промежутка : 40 мс. (1,00 видеокадр)
Время предзагрузки промежутка : 500 мс.
Релиз группы:
--
[Профиль] [ЛС]

Создавать темы 12-Июн-2016 07:53 (спустя 3 месяца 14 дней)

Топик был перенесен из форума Фильмы 2011 года в форум Фильмы 2010 года
Russian Mafia
 
Кто просматривает тему:

Показать сообщения:    

Текущее время: Сегодня 06:07

Часовой пояс: GMT



Вы не можете начинать темы
Вы не можете отвечать на сообщения
Вы не можете редактировать свои сообщения
Вы не можете удалять свои сообщения
Вы не можете голосовать в опросах
Вы не можете прикреплять файлы к сообщениям
Вы не можете скачивать файлы