НАНА, НАНИ, НАО (Константин Бриллиантов) [2014, мультфильм, DVDScreener]

 
Автор Сообщение

TorrentFilm ®

Пол:

Стаж: 2 года

Сообщений: 7741



Награды: Нет

Торрент-статистика

Создавать темы 23-Окт-2015 00:11

[Цитировать]

НАНА, НАНИ, НАО
Страна: РФ
Жанр: мультфильм
Продолжительность: 00:04:03
Год выпуска: 2014
Русские субтитры: нет
Режиссёр: Константин Бриллиантов
Описание: Притча-колыбельная, предположительно повествующая о преодолении границ возможного, о скрытых резервах и спасительной силе искусства.
Доп. информация: Фильм - участник конкурсной программы фестиваля Суздаль-2014.
Качество: DVDScreener
Формат: AVI
Видео: DIVX, 720x416, 29,97 fps, 821kbps
Аудио: MPEG Layer 3, 48kHz, 2ch, 192kbps
Субтитры: отсутствуют

Подробные технические данные

Полное имя : НАНА, НАНИ, НАО.aviФормат : AVIФормат/Информация : Audio Video InterleaveРазмер файла : 29,8 МбайтПродолжительность : 4 м. 3 с.Общий поток : 1025 Кбит/секПрограмма кодирования : VirtualDubMod 1.5.10.3 | www.virtualdub-fr.org || (build 2550/release)Библиотека кодирования : VirtualDubMod build 2550/release
ВидеоИдентификатор : 0Формат : MPEG-4 VisualПрофиль формата : Advanced Simple@L5Параметр BVOP формата : 1Параметр QPel формата : НетПараметр GMC формата : Без точки переходаПараметр матрицы формата : Default (H.263)Идентификатор кодека : DIVXИдентификатор кодека/Информация : Project MayoИдентификатор кодека/Подсказка : DivX 4Продолжительность : 4 м. 3 с.Битрейт : 821 Кбит/секШирина : 720 пикселейВысота : 416 пикселейСоотношение сторон : 1,731Частота кадров : 29,970 кадров/секЦветовое пространство : YUVСубдискретизация насыщенности : 4:2:0Битовая глубина : 8 битТип развёртки : ПрогрессивнаяМетод сжатия : С потерямиБит/(Пиксели*Кадры) : 0.091Размер потока : 23,9 Мбайт (80%)Библиотека кодирования : XviD 1.2.1 (UTC 2008-12-04)
АудиоИдентификатор : 1Формат : MPEG AudioВерсия формата : Version 1Профиль формата : Layer 3Идентификатор кодека : 55Идентификатор кодека/Подсказка : MP3Продолжительность : 4 м. 3 с.Вид битрейта : ПостоянныйБитрейт : 192 Кбит/секКаналы : 2 каналаЧастота : 48,0 КГцМетод сжатия : С потерямиРазмер потока : 5,58 Мбайт (19%)Выравнивание : Соединение по промежуткамПродолжительность промежутка : 33 мс. (1,00 видеокадр)Время предзагрузки промежутка : 504 мс.Библиотека кодирования : LAME3.99rНастройки программы : -m s -V 4 -q 0 -lowpass 18.6 -b 192

Скриншоты



[Профиль] [ЛС]
Кто просматривает тему:

Показать сообщения:    

Текущее время: Сегодня 20:11

Часовой пояс: GMT



Вы не можете начинать темы
Вы не можете отвечать на сообщения
Вы не можете редактировать свои сообщения
Вы не можете удалять свои сообщения
Вы не можете голосовать в опросах
Вы не можете прикреплять файлы к сообщениям
Вы не можете скачивать файлы