Наконец-то Рождество / Finalmente Natale (Росселла Иццо / Rossella Izzo) [2008, Италия, комедия, SATRip] MVO (Комедия ТВ)

 
Автор Сообщение

TorrentFilm ®

Пол:

Стаж: 2 года

Сообщений: 7741



Награды: Нет

Торрент-статистика

Создавать темы 11-Янв-2016 00:08

[Цитировать]

Наконец-то Рождество / Finalmente Natale
Страна: Италия
Жанр: комедия
Год выпуска: 2008
Продолжительность: 01:40:32
Перевод: Профессиональный (многоголосый закадровый) Комедия ТВ
Cубтитры: нет
Оригинальная аудиодорожка: нет
Режиссер: Росселла Иццо / Rossella Izzo
В ролях: Джерри Скотти, Монти Мария Амелия, Энрико Бриньяно, Евгенио Баттаджлиа, Джессика Польски
Описание: Два дня до Рождества. Семейство Мантелли — супруги Джиджи и Элис, их дети и бабушка Ванда готовятся к Рождеству: индейка, подарки, ёлка… Все казалось бы предусмотрено.
Но вдруг Элис решает, что в их браке с мужем наступил кризис, и потому им вдвоем нужно срочно отправиться в путешествие. Чтобы заново узнать друг друга, они решают уехать подальше от своего дома и рождественской ёлки…
Сэмпл: http://multi-up.com/1083484
Качество видео: SATRip
Формат видео: AVI
Видео: MPEG4, XviD, 688x384 (16:9), 25.000 fps, 1 748 Kbps (0.265 bit/pixel)
Аудио: AC-3, 48.0 KHz, 2 ch, 192 Kbps, CBR

MediaInfo

Общее
Полное имя : N:\Наконец-то Рождество.avi
Формат : AVI
Формат/Информация : Audio Video Interleave
Размер файла : 1,37 Гбайт
Продолжительность : 1 ч. 40 м.
Общий поток : 1950 Кбит/сек
Название фильма : Наконец-то Рождество / Finalmente Natale (2008)
Программа кодирования : VirtualDubMod 1.5.10.2 (build 2540/release)
Библиотека кодирования : VirtualDubMod build 2540/release
Авторское право : miha2154
Видео
Идентификатор : 0
Формат : MPEG-4 Visual
Профиль формата : Advanced Simple@L5
Параметр BVOP формата : 1
Параметр QPel формата : Нет
Параметр GMC формата : Без точки перехода
Параметр матрицы формата : Выборочная
Идентификатор кодека : XVID
Идентификатор кодека/Подсказка : XviD
Продолжительность : 1 ч. 40 м.
Битрейт : 1748 Кбит/сек
Ширина : 688 пикселей
Высота : 384 пикселя
Соотношение сторон : 16:9
Частота кадров : 25,000 кадров/сек
Цветовое пространство : YUV
Субдискретизация насыщенности : 4:2:0
Битовая глубина : 8 бит
Тип развёртки : Прогрессивная
Метод сжатия : С потерями
Бит/(Пиксели*Кадры) : 0.265
Размер потока : 1,23 Гбайт (90%)
Библиотека кодирования : XviD 65
Аудио
Идентификатор : 1
Формат : AC-3
Формат/Информация : Audio Coding 3
Расширение режима : CM (complete main)
Параметр Endianness формата : Big
Идентификатор кодека : 2000
Продолжительность : 1 ч. 40 м.
Вид битрейта : Постоянный
Битрейт : 192 Кбит/сек
Каналы : 2 канала
Расположение каналов : Front: L R
Частота : 48,0 КГц
Частота кадров : 31,250 кадров/сек (1536 spf)
Метод сжатия : С потерями
Размер потока : 138 Мбайт (10%)
Выравнивание : Разделение по промежуткам
Продолжительность промежутка : 40 мс. (1,00 видеокадр)
Время предзагрузки промежутка : 500 мс.
Заголовок : Профессиональный (многоголосый закадровый) Комедия ТВ

Скриншоты


[Профиль] [ЛС]

Создавать темы 12-Июн-2016 08:50 (спустя 5 месяцев 1 день)

Топик был перенесен из форума Фильмы 2011 года в форум Фильмы 2006-2008 года
Russian Mafia
 
Показать сообщения:    

Текущее время: Сегодня 19:37

Часовой пояс: GMT



Вы не можете начинать темы
Вы не можете отвечать на сообщения
Вы не можете редактировать свои сообщения
Вы не можете удалять свои сообщения
Вы не можете голосовать в опросах
Вы не можете прикреплять файлы к сообщениям
Вы не можете скачивать файлы