Найди меня / Find Me (Энди Палмер / Andy Palmer ) [2014, США, ужасы, триллер, детектив, HDRip] DVO (МЕГАПЫХАРЬ и Элис)

 
Автор Сообщение

TorrentFilm ®

Пол:

Стаж: 1 год 11 месяцев

Сообщений: 7741



Награды: Нет

Торрент-статистика

Создавать темы 09-Янв-2015 00:00

[Цитировать]

Найди меня / Find Me
Страна: США
Жанр: ужасы, триллер, детектив
Год выпуска: 2014
Продолжительность: 01:26:51
Перевод: Любительский (двухголосый закадровый) (МЕГАПЫХАРЬ и Элис)
Cубтитры: нет
Оригинальная аудиодорожка: нет
Режиссер: Энди Палмер / Andy Palmer
В ролях: Камерон Бендер, Кэтрин Лин, Рейчел Димария, Карлос Аласраки...
Описание: Молодожёны Тим и Эмили наконец-то приобрели свой первый дом. Но ещё даже не распаковав все вещи, они обнаружили, что в доме живёт призрак. Не долго думая, они вступают с ним в игру...

Сэмпл: http://sendfile.su/1071060
Качество видео: HDRip
Формат видео: AVI
Видео: 640 x352 (16:9), 23.976 fps, XviD MPEG-4 ~1 187 kbps avg, 0.183 bit/pixel
Аудио: 48 kHz, AC3 Dolby Digital, 2/0 (L,R) ch, ~192 kbps

MediaInfo

General
Complete name : C:\Documents and Settings\Admin.MICROSOF-C69A97\Рабочий стол\Find.Me.2014.HDRip.XViD-juggs[ETRG]\Find.Me.2014.avi
Format : AVI
Format/Info : Audio Video Interleave
File size : 738 MiB
Duration : 1h 26mn
Overall bit rate : 1 187 Kbps
Writing application : VirtualDubMod 1.5.10.2 (build 2540/release)
Writing library : VirtualDubMod build 2540/release
Video
ID : 0
Format : MPEG-4 Visual
Format profile : Advanced Simple@L5
Format settings, BVOP : 2
Format settings, QPel : No
Format settings, GMC : No warppoints
Format settings, Matrix : Default (H.263)
Muxing mode : Packed bitstream
Codec ID : XVID
Codec ID/Hint : XviD
Duration : 1h 26mn
Bit rate : 986 Kbps
Width : 640 pixels
Height : 352 pixels
Display aspect ratio : 16:9
Frame rate : 23.976 fps
Color space : YUV
Chroma subsampling : 4:2:0
Bit depth : 8 bits
Scan type : Progressive
Compression mode : Lossy
Bits/(Pixel*Frame) : 0.183
Stream size : 612 MiB (83%)
Writing library : XviD 65
Audio
ID : 1
Format : AC-3
Format/Info : Audio Coding 3
Mode extension : CM (complete main)
Format settings, Endianness : Big
Codec ID : 2000
Duration : 1h 26mn
Bit rate mode : Constant
Bit rate : 192 Kbps
Channel(s) : 2 channels
Channel positions : Front: L R
Sampling rate : 48.0 KHz
Bit depth : 16 bits
Compression mode : Lossy
Stream size : 119 MiB (16%)
Alignment : Split accross interleaves
Interleave, duration : 42 ms (1.00 video frame)
Interleave, preload duration : 500 ms

Скриншот c названием фильма

Скриншоты

Релиз от:
[Профиль] [ЛС]
Показать сообщения:    

Текущее время: Сегодня 18:01

Часовой пояс: GMT



Вы не можете начинать темы
Вы не можете отвечать на сообщения
Вы не можете редактировать свои сообщения
Вы не можете удалять свои сообщения
Вы не можете голосовать в опросах
Вы не можете прикреплять файлы к сообщениям
Вы не можете скачивать файлы