Наемницы / Mercenaries (2014) BDRip 720p | L2

 
Автор Сообщение

sergej644 ®

Пол:

Стаж: 4 года 11 месяцев

Сообщений: 6046

Откуда: Soviet Union



Награды: Нет

Торрент-статистика

Создавать темы 10-Дек-2014 18:45

[Цитировать]

Информация о фильме
Название: Наемницы
Оригинальное название: Mercenaries
Год выхода: 2014
Жанр: боевик
Режиссер: Кристофер Рэй
В ролях: Зои Белл, Кристанна Локен, Вивика А. Фокс, Бриджит Нильсен, Синтия Ротрок, Николь Бильдербак, Тим Эбелл, Джералд Уэбб
О фильме: Во время поездки по району боевых действий, женщина дипломат была захвачена в плен и заключена в тюрьму. В связи с этим формируется команда элитного женского подразделения, которая должна проникнуть в женскую тюрьму и осуществить дерзкий план по спасению.

Выпущено: США
Продолжительность: 01:29:05
Озвучивание: Любительское (двухголосое) [DeadSno & den904], перевод [akira9]
Файл
Формат: MKV
Качество: BDRip 720p
Видео: 4125 kb/s, 1280x720
Аудио: Russian: AC3, 448 kb/s (6 ch) / English: DTS, 1510 kb/s (6 ch)

MI

Format : Matroska
Format version : Version 4 / Version 2
File size : 3.78 GiB
Duration : 1h 29mn
Overall bit rate : 6 080 Kbps
Encoded date : UTC 2014-12-09 17:53:12
Writing application : mkvmerge v6.1.0 ('Old Devil') built on Mar 4 2013 09:10:42
Writing library : libebml v1.3.0 + libmatroska v1.4.0
Video
ID : 1
Format : AVC
Format/Info : Advanced Video Codec
Format profile : High@L4.1
Format settings, CABAC : Yes
Format settings, ReFrames : 9 frames
Codec ID : V_MPEG4/ISO/AVC
Duration : 1h 29mn
Bit rate : 4 125 Kbps
Width : 1 280 pixels
Height : 720 pixels
Display aspect ratio : 16:9
Frame rate : 23.976 fps
Color space : YUV
Chroma subsampling : 4:2:0
Bit depth : 8 bits
Scan type : Progressive
Bits/(Pixel*Frame) : 0.187
Stream size : 2.49 GiB (66%)
Title : Anonymous@CHD
Writing library : x264 core 142 r2431 ac76440
Encoding settings : cabac=1 / ref=9 / deblock=1:-3:-3 / analyse=0x3:0x113 / me=umh / subme=10 / psy=1 / psy_rd=1.00:0.05 / mixed_ref=1 / me_range=32 / chroma_me=1 / trellis=2 / 8x8dct=1 / cqm=0 / deadzone=21,11 / fast_pskip=0 / chroma_qp_offset=-2 / threads=18 / lookahead_threads=1 / sliced_threads=0 / nr=0 / decimate=1 / interlaced=0 / bluray_compat=0 / constrained_intra=0 / bframes=4 / b_pyramid=2 / b_adapt=2 / b_bias=0 / direct=3 / weightb=1 / open_gop=0 / weightp=2 / keyint=250 / keyint_min=23 / scenecut=40 / intra_refresh=0 / rc=2pass / mbtree=0 / bitrate=4125 / ratetol=1.0 / qcomp=0.70 / qpmin=0 / qpmax=69 / qpstep=4 / cplxblur=20.0 / qblur=0.5 / ip_ratio=1.40 / pb_ratio=1.30 / aq=2:0.90
Language : English
Default : Yes
Forced : No
Audio #1
ID : 2
Format : AC-3
Format/Info : Audio Coding 3
Mode extension : CM (complete main)
Format settings, Endianness : Big
Codec ID : A_AC3
Duration : 1h 29mn
Bit rate mode : Constant
Bit rate : 448 Kbps
Channel(s) : 6 channels
Channel positions : Front: L C R, Side: L R, LFE
Sampling rate : 48.0 KHz
Bit depth : 16 bits
Compression mode : Lossy
Stream size : 285 MiB (7%)
Language : Russian
Default : Yes
Forced : No
Audio #2
ID : 3
Format : DTS
Format/Info : Digital Theater Systems
Codec ID : A_DTS
Duration : 1h 29mn
Bit rate mode : Constant
Bit rate : 1 510 Kbps
Channel(s) : 6 channels
Channel positions : Front: L C R, Side: L R, LFE
Sampling rate : 48.0 KHz
Bit depth : 24 bits
Compression mode : Lossy
Stream size : 962 MiB (25%)
Language : English
Default : No
Forced : No

Скриншоты

[Профиль] [ЛС]
Кто просматривает тему:

Форум Тема Автор Размер
Фантастика, фэнтези Анастасия Левковская | Талант быть наемником (2015) [FB2] достали все 1 MB
Фильмы (HD Rips | 720p, 1080p) Дневник наёмного убийцы / Diary of a Hitman (Рой Лондон / Roy London) [1991, США, триллер, драма, криминал, HDTV 1080i] DVO (НТВ+) + AVO (А. Гаврилов) + AVO (С. Визгунов) + Sub Eng + Original Eng bot 3.65 GB
Зарубежные сериалы Наемник Куорри / Quarry (Сезон 1, Серия 1-4 из 8 ) (Грег Яйтанс, Джон Хиллкоут) [2016, Криминальная драма , HDTVRip 1080p ] [MVO] [AlexFilm , NewStudiо ,BaibaK o,Kubik V Kube , English + Subs ENG] Враг Нароода 16.93 GB
Фильмы 2015 года Наёмник: Отпущение грехов / Absolution (2015) HDRip от ExKinoRay | L1 достали все 748 MB
Фильмы 2015 года Наёмник: Отпущение грехов / Absolution (Киони Ваксман / Keoni Waxman) [2015, США, Румыния, Боевик, Триллер, Криминал, Приключения, HDRip] VO TorrentFilm 1.45 GB
Discovery Наемники (3 серии из 5) / Mercenaries (Бен Андерсон/Ben Anderson) [2013, Документальный, DVB] reversefile 1.54 GB
Фильмы 2014 года Наемницы / Mercenaries (2014) HDRip | L2 sergej644 699 MB
Фильмы 2014 года Наёмные убийцы / Contract killers (2014) HDRip | L1 достали все 1.45 GB
Показать сообщения:    

Текущее время: Сегодня 23:28

Часовой пояс: GMT



Вы не можете начинать темы
Вы не можете отвечать на сообщения
Вы не можете редактировать свои сообщения
Вы не можете удалять свои сообщения
Вы не можете голосовать в опросах
Вы не можете прикреплять файлы к сообщениям
Вы не можете скачивать файлы