Наемники (3 серии из 5) / Mercenaries (Бен Андерсон/Ben Anderson) [2013, Документальный, DVB]

 
Автор Сообщение

reversefile ®

Пол:

Стаж: 5 лет 5 месяцев

Сообщений: 842

Откуда: ReverseFile.org



Награды: Нет

Торрент-статистика

Создавать темы 24-Июл-2014 17:55

[Цитировать]

Наемники (3 серии из 5) / Mercenaries
Год выпуска: 2013
Страна: США Discovery Channel
Жанр: Документальный
Продолжительность: 3 серии по 44 мин.
Перевод: Одноголосый закадровый
Русские субтитры: нет
Режиссер: Бен Андерсон/Ben Anderson
Описание: Discovery Channel предлагает вам уникальную возможность заглянуть в мир реальных «Неудержимых». Новая программа «Наемники» познакомит вас с наемными солдатами, жизнь которых полна захватывающих и экстремальных приключений. Хотя герои шоу предпочитают скрытный образ жизни, съемочной команде удалось пообщаться с настоящими ветеранами, участвовавшими ни в одном десятке боевых операций.
Вы узнаете, как живут современные солдаты удачи, какую работу они выполняют и каких нравственных принципов придерживаются. Профессия «наемника» у многих может вызвать ассоциации бесчестных бойцов, готовых взяться за любую работу. Есть ли у них какой-то моральный кодекс сейчас? Зачастую «частные армейские подразделения» работают на различные правительства и транснациональные корпорации, однако есть ли кто-то, за кого они не станут воевать? Программа «Наемники» покажет, чем реально существующие солдаты отличаются от своих голливудских образцов, и какие методы и оборудование используются ими в настоящих боевых операциях.
Сэмпл: http://multi-up.com/939658
качество: DVB
формат: TS/M2TS
Видео: AVC, аноморф. 720х576, 4:3, 1280 Кбит/сек, 25 fps
Аудио-1(Rus): MPEG Audio, 128 Кбит/сек, 48 КГц, 2 канала
Аудио-2 (Eng): MPEG Audio, 112 Кбит/сек, 48 КГц, 2 канала

Список выпусков/серий

Наемники 1 серия. Самый долгий угон в мире
Наемники 2 серия. Псы войны
Наемники 3 серия. Частные военные подрядчики
Наемники 4 серия Торговцы смертью
Наемники 5 серия Падение Каддафи

MediaInfo

бщее
Идентификатор : 16 (0x10)
Полное имя : Mercenaries.ts
Формат : MPEG-TS
Размер файла : 501 Мбайт
Продолжительность : 43 м.
Режим общего битрейта : Переменный
Общий поток : 1602 Кбит/сек
Видео
Идентификатор : 1113 (0x459)
Идентификатор меню : 113 (0x71)
Формат : MPEG Video
Версия формата : Version 2
Профиль формата : Main@Main
Параметр BVOP формата : Да
Параметр матрицы формата : Выборочная
Параметр GOP формата : Variable
Идентификатор кодека : 2
Продолжительность : 43 м.
Вид битрейта : Переменный
Битрейт : 1280 Кбит/сек
Максимальный битрейт : 15,0 Мбит/сек
Ширина : 544 пикселя
Высота : 576 пикселей
Соотношение сторон : 4:3
Частота кадров : 25,000 кадров/сек
Цветовое пространство : YUV
Субдискретизация насыщенности : 4:2:0
Битовая глубина : 8 бит
Тип развёртки : Чересстрочная
Порядок развёртки : Верхнее поле первое
Метод сжатия : С потерями
Бит/(Пиксели*Кадры) : 0.163
Размер потока : 401 Мбайт (80%)
Аудио #1
Идентификатор : 2113 (0x841)
Идентификатор меню : 113 (0x71)
Формат : MPEG Audio
Версия формата : Version 1
Профиль формата : Layer 2
Идентификатор кодека : 4
Продолжительность : 43 м.
Вид битрейта : Постоянный
Битрейт : 128 Кбит/сек
Каналы : 2 канала
Частота : 48,0 КГц
Метод сжатия : С потерями
Задержка видео : 53 мс.
Размер потока : 40,1 Мбайт (8%)
Язык : std
Язык, дополнительно : Clean effects
Аудио #2
Идентификатор : 3113 (0xC29)
Идентификатор меню : 113 (0x71)
Формат : MPEG Audio
Версия формата : Version 1
Профиль формата : Layer 2
Идентификатор кодека : 4
Продолжительность : 43 м.
Вид битрейта : Постоянный
Битрейт : 112 Кбит/сек
Каналы : 2 канала
Частота : 48,0 КГц
Метод сжатия : С потерями
Задержка видео : 29 мс.
Размер потока : 35,0 Мбайт (7%)
Язык : English
Язык, дополнительно : Clean effects

Скриншоты

[Профиль] [ЛС]
Показать сообщения:    

Текущее время: Сегодня 06:36

Часовой пояс: GMT



Вы не можете начинать темы
Вы не можете отвечать на сообщения
Вы не можете редактировать свои сообщения
Вы не можете удалять свои сообщения
Вы не можете голосовать в опросах
Вы не можете прикреплять файлы к сообщениям
Вы не можете скачивать файлы