Наездник / Chavandoz (Хамидулла Хасанов) [2007, Узбекистан, Драма, мелодрама, SATRip] MVO

 
Автор Сообщение

painkiller ®

Стаж: 2 года 3 месяца

Сообщений: 582



Награды: Нет

Торрент-статистика

Создавать темы 18-Авг-2014 14:16

[Цитировать]

Наездник / Chavandoz
Страна: Узбекистан
Жанр: Драма, мелодрама
Год выпуска: 2007
Продолжительность: 1:27:20
Перевод: Профессиональный (многоголосый закадровый)
Режиссер: Хамидулла Хасанов
В ролях: Боир Халмирзаев, Тахир Саидов, Юлдуз Хамидова, Гульчехра Обидова, Алишер Атабаев, Миртахир Миралиев, Джумадулла Раметов, Мухаммаджан Нурматов, Хашим Арсланов, Бекмурод Джураев, Раногуль Сариева, Музаффар Шадиев, Сахибкамал Саиназаров, Дилмурод Камбаров, Джамиля Болбекова
Описание: С давних времен на просторах Великого Турана существовала традиция — в честь рождения сыновей проводить народную игру «купкари» (козлодранье). Кроме умения скакать на лошади, быть ловким и смелым, это состязание воспитывало у будущих воинов волю к победе и готовность к защите Родины…» Наездники Бешим и Ташмурад были лучшими в округе, не было им равных в козлодранье. Когда-то они были друзьями и любили одну и ту же девушку. Саодат выбрала Ташмурада, и верной дружбе пришел конец. С тех пор каждое состязание становилось захватывающим поединком двух непримиримых соперников, в котором кроме приза зачастую разыгрывались и честь джигита, и его жизнь…
Сэмпл: http://multi-up.com/953416
Качество видео: SATRip
Формат видео: AVI
Видео: XviD MPEG-4 , 704x400 (1.76:1) , 25 fps , 2163 kbps avg
Аудио: AC3 , 48 kHz , 160.00 kbps avg , 2/0 (L,R) ch

MediaInfo

General
Complete name : C:\Наездник 2007.avi
Format : AVI
Format/Info : Audio Video Interleave
File size : 1.42 GiB
Duration : 1h 27mn
Overall bit rate : 2 333 Kbps
Writing library : VirtualDub build 35390/release
Video
ID : 0
Format : MPEG-4 Visual
Format settings, BVOP : No
Format settings, QPel : No
Format settings, GMC : No warppoints
Format settings, Matrix : Default (H.263)
Codec ID : XVID
Codec ID/Hint : XviD
Duration : 1h 27mn
Bit rate : 2 163 Kbps
Width : 704 pixels
Height : 400 pixels
Display aspect ratio : 16:9
Frame rate : 25.000 fps
Color space : YUV
Chroma subsampling : 4:2:0
Bit depth : 8 bits
Scan type : Progressive
Compression mode : Lossy
Bits/(Pixel*Frame) : 0.307
Stream size : 1.32 GiB (93%)
Audio
ID : 1
Format : AC-3
Format/Info : Audio Coding 3
Mode extension : CM (complete main)
Format settings, Endianness : Big
Codec ID : 2000
Duration : 1h 27mn
Bit rate mode : Constant
Bit rate : 160 Kbps
Channel(s) : 2 channels
Channel positions : Front: L R
Sampling rate : 48.0 KHz
Bit depth : 16 bits
Compression mode : Lossy
Stream size : 100.0 MiB (7%)
Alignment : Aligned on interleaves
Interleave, duration : 40 ms (1.00 video frame)
Interleave, preload duration : 512 ms

Скриншот c названием фильма

Скриншоты

[Профиль] [ЛС]

Создавать темы 06-Авг-2015 23:06 (спустя 11 месяцев 19 дней)

Топик был перенесен из форума Фильмы до 2014 года в форум Фильмы до 2012 года
sergej644
 
Кто просматривает тему:

Показать сообщения:    

Текущее время: Сегодня 13:00

Часовой пояс: GMT



Вы не можете начинать темы
Вы не можете отвечать на сообщения
Вы не можете редактировать свои сообщения
Вы не можете удалять свои сообщения
Вы не можете голосовать в опросах
Вы не можете прикреплять файлы к сообщениям
Вы не можете скачивать файлы