Над улицей, под водой / Over gaden under vandet (Шарлотта Силинг / Charlotte Sieling) [2009, Дания, мелодрама, DVDRip] DVO (Lord32x)

 
Автор Сообщение

TorrentFilm ®

Пол:

Стаж: 2 года

Сообщений: 7741



Награды: Нет

Торрент-статистика

Создавать темы 12-Авг-2015 00:06

[Цитировать]

Над улицей, под водой / Over gaden under vandet
Страна: Дания
Жанр: мелодрама
Год выпуска: 2009
Продолжительность: 01:25:09
Перевод: Любительский (двухголосый закадровый) Lord32x
Cубтитры: нет
Режиссер: Шарлотта Силинг / Charlotte Sieling
В ролях: Сидсе Бабетт Кнудсен, Николас Бро, Андерс Бертельсен
Описание: Один день из жизни нескольких обитателей Копенгагена. Анна - известная актриса. Вечером у нее премьера в театре, а она не влезает в платье, которое ей сшили... Ее муж не может набраться храбрости и признаться жене, что собирается ее бросить...А семейный психолог Шарлотта выслушивает каждый день жалобы супружеских пар, а сама не может навести порядок в своей жизни...А Бьерн недавно развелся и не может решить с бывшей женой вопрос об опеке над детьми...Это только один день из их жизни...
Сэмпл
Перевод: М.Васильев
Озвучка: Lord32x
Качество видео: DVDRip
Формат видео: AVI
Видео: 1095 Kbps, 688x288 (2.40:1) 25 000 fps, MPEG 4 XviD
Аудио: 128 Kbps, 48.0 KHz, 2 ch, MP 3

MediaInfo

General
Complete name : C:\Users\Владелец\Downloads\Over.Gaden.Under.Vandet.2009.DVDRip.750MB.Lord32x.Studio.avi
Format : AVI
Format/Info : Audio Video Interleave
File size : 751 MiB
Duration : 1h 25mn
Overall bit rate : 1 233 Kbps
Writing application : VirtualDubMod 1.5.10.3 | www.virtualdub-fr.org || (build 2550/release)
Writing library : VirtualDubMod build 2550/release
Video
ID : 0
Format : MPEG-4 Visual
Format profile : Advanced Simple@L5
Format settings, BVOP : 1
Format settings, QPel : No
Format settings, GMC : No warppoints
Format settings, Matrix : Default (H.263)
Codec ID : XVID
Codec ID/Hint : XviD
Duration : 1h 25mn
Bit rate : 1 095 Kbps
Width : 688 pixels
Height : 288 pixels
Display aspect ratio : 2.40:1
Frame rate : 25.000 fps
Color space : YUV
Chroma subsampling : 4:2:0
Bit depth : 8 bits
Scan type : Progressive
Compression mode : Lossy
Bits/(Pixel*Frame) : 0.221
Stream size : 667 MiB (89%)
Writing library : XviD 1.2.1 (UTC 2008-12-04)
Audio
ID : 1
Format : MPEG Audio
Format version : Version 1
Format profile : Layer 3
Mode : Joint stereo
Mode extension : MS Stereo
Codec ID : 55
Codec ID/Hint : MP3
Duration : 1h 25mn
Bit rate mode : Constant
Bit rate : 128 Kbps
Channel(s) : 2 channels
Sampling rate : 48.0 KHz
Compression mode : Lossy
Stream size : 78.0 MiB (10%)
Alignment : Aligned on interleaves
Interleave, duration : 40 ms (1.00 video frame)
Interleave, preload duration : 504 ms

Скриншот c названием фильма

Скриншоты




[Профиль] [ЛС]

Создавать темы 12-Июн-2016 08:13 (спустя 10 месяцев)

Топик был перенесен из форума Фильмы 2011 года в форум Фильмы 2009 года
Russian Mafia
 
Кто просматривает тему:

Показать сообщения:    

Текущее время: Сегодня 04:47

Часовой пояс: GMT



Вы не можете начинать темы
Вы не можете отвечать на сообщения
Вы не можете редактировать свои сообщения
Вы не можете удалять свои сообщения
Вы не можете голосовать в опросах
Вы не можете прикреплять файлы к сообщениям
Вы не можете скачивать файлы