Над глубиной: Хроника выживания / Cage Dive (2017) WEB-DL 1080р | iTunes

 
Автор Сообщение

BOSS ®

Пол:

Стаж: 2 года 11 месяцев

Сообщений: 7144

Откуда: ODESSA



Награды: 20 (Подробнее)

Mega Seeder 3 (Количество: 1) Mega Releaser 3 (Количество: 1) Top Seeder 4 (Количество: 1)
Торрент-статистика

Создавать темы 11-Сен-2017 11:13

[Цитировать]

Над глубиной: Хроника выживания / Cage Dive
Страна: Австралия
Производство: Exit Strategy Productions, Just One More Productions
Год выпуска: 2017
Жанр: ужасы, триллер, драма
Продолжительность: 01:16:57
Режиссер: Джералд Рашионато
Авторы сценария: Джералд Рашионато, Стивен Листер
В ролях: Джоэль Хоган, Джош Поттхофф, Меган Пета Хилл, Пит Вэлли, Марк Фелл, Кристофер Коллен, Тара Рэйт, Крис Бэс
Описание: Три американских студента решили записать на видео свой экстремальный отдых: глубоководное погружение в клетке к большой белой акуле в Южной Австралии. Весёлое приключение — такой забавой это казалось для друзей. Но катастрофический поворот событий расставил всё по своим местам: друзья оказались в открытом море наедине с большой белой акулой...

Перевод: Профессиональный (полное дублирование) | iTunes
Субтитры: нет-Качество: WEB-DL 1080р
Формат: МКV
Видео кодек: AVC
Аудио кодек: АС3
Видео: 1920x1038 (1.85:1), 25.000 fps, MPEG-4 AVC ~5 009 kbps avg
Аудио №1: 48.0 kHz, AC3 Dolby Digital, 3/2 (L,C,R,l,r) + LFE ch, ~384 kbps | RUS
Аудио №2: 48.0 kHz, AC3 Dolby Digital, 3/2 (L,C,R,l,r) + LFE ch, ~384 kbps | ENG
Дата премьеры (мир): 25 февраля 2017
Дата премьеры (РФ): 17 августа 2017, «Люксор»

Media Info

General
General
Unique ID : 206967201458161335165103528356624320642 (0x9BB46EDE4B23C69BB94BF332B099C882)
Complete name : Cage Dive (2017) WEB-DL 1080р.mkv
Format : Matroska
Format version : Version 2
File size : 3.17 GiB
Duration : 1h 16mn
Overall bit rate : 5 894 Kbps
Encoded date : UTC 2017-09-11 07:24:22
Writing application : mkvmerge v7.8.0 ('River Man') 32bit built on Apr 3 2015 12:11:22
Writing library : libebml v1.3.1 + libmatroska v1.4.2
Video
ID : 1
Format : AVC
Format/Info : Advanced Video Codec
Format profile : High@L4
Format settings, CABAC : Yes
Format settings, ReFrames : 4 frames
Codec ID : V_MPEG4/ISO/AVC
Duration : 1h 16mn
Bit rate : 5 009 Kbps
Width : 1 920 pixels
Height : 1 038 pixels
Display aspect ratio : 1.85:1
Frame rate mode : Constant
Frame rate : 25.000 fps
Color space : YUV
Chroma subsampling : 4:2:0
Bit depth : 8 bits
Scan type : Progressive
Bits/(Pixel*Frame) : 0.101
Stream size : 2.69 GiB (85%)
Language : English
Default : Yes
Forced : No
Color range : Limited
Color primaries : BT.709
Transfer characteristics : BT.709
Matrix coefficients : BT.709
Audio #1
ID : 2
Format : AC-3
Format/Info : Audio Coding 3
Mode extension : CM (complete main)
Format settings, Endianness : Big
Codec ID : A_AC3
Duration : 1h 16mn
Bit rate mode : Constant
Bit rate : 384 Kbps
Channel(s) : 6 channels
Channel positions : Front: L C R, Side: L R, LFE
Sampling rate : 48.0 KHz
Compression mode : Lossy
Stream size : 211 MiB (7%)
Title : iTunes
Language : Russian
Default : Yes
Forced : Yes
Audio #2
ID : 3
Format : AC-3
Format/Info : Audio Coding 3
Mode extension : CM (complete main)
Format settings, Endianness : Big
Codec ID : A_AC3
Duration : 1h 16mn
Bit rate mode : Constant
Bit rate : 384 Kbps
Channel(s) : 6 channels
Channel positions : Front: L C R, Side: L R, LFE
Sampling rate : 48.0 KHz
Compression mode : Lossy
Stream size : 211 MiB (7%)
Language : English
Default : No
Forced : No
Menu
00:00:00.000 : en:Глава 1
00:07:13.680 : en:Глава 2
00:14:58.680 : en:Глава 3
00:22:51.680 : en:Глава 4
00:30:20.079 : en:Глава 5
00:36:32.158 : en:Глава 6
00:43:21.197 : en:Глава 7
00:50:27.396 : en:Глава 8
00:56:29.916 : en:Глава 9
01:02:51.675 : en:Глава 10

Скриншоты

[Профиль] [ЛС]
Кто просматривает тему:

Показать сообщения:    

Текущее время: Сегодня 04:13

Часовой пояс: GMT



Вы не можете начинать темы
Вы не можете отвечать на сообщения
Вы не можете редактировать свои сообщения
Вы не можете удалять свои сообщения
Вы не можете голосовать в опросах
Вы не можете прикреплять файлы к сообщениям
Вы не можете скачивать файлы