Над вершинами / Au-delà Des Cimes / Beyond The Summits (Реми Тезье / Rémy Tezier) [2009, Документальный, спорт, экстрим, альпинизм, BDRemux 1080i]

 
Автор Сообщение

TorrentFilm ®

Пол:

Стаж: 1 год 11 месяцев

Сообщений: 7741



Награды: Нет

Торрент-статистика

Создавать темы 08-Янв-2015 00:15

[Цитировать]

Над вершинами / Au-delà Des Cimes / Beyond The Summits- Год выпуска: 2009
Страна: Франция
Студия: TEC TEC Production, Canal Overseas Productions, France 5, Первый ТВЧ
Жанр: Документальный, спорт, экстрим, альпинизм
Продолжительность: 01:15:51
Перевод: Профессиональный (многоголосый закадровый)
Русские субтитры: есть
Режиссер: Реми Тезье / Rémy Tezier
В ролях: Gabriel Briand, Catherine Destivelle, Claire Destivelle-Описание: Одна из лучших альпинисток мира Катрин Дестивэль совершит три впечатляющих восхождения на склоны Альп и возьмет нас собой! Мы посмотрим на горы глазами Катрин и постараемся понять: что же за страсть движет ею. Захватывающие дух съемки, великолепные пейзажи и необъятность парящих скал. Катрин Дестивель - одна из самых известных восходительниц в мире. Ее альпинистская биография полна потрясающих восхождений, соло, первопрохождений, экспедиций, побед в соревнованиях по скалолазанию в течение всех 80-х. Она совершила многочисленные восхождения по самым известным стенам, включая зимнее соло по Северной стене Эйгера всего лишь за 17 часов, или ее знаменитый первопроход по восточной стене Пти Дрю, соло, занявшее 11 дней. Она прошла зимой все три самые знаменитые Северные стены в Альпах: Эйгер, Гран Жорас, и Маттерхорн, совершила скоростное прохождение м-та Бонатти на Пти Дрю всего лишь за 4 часа, поднялась на вершину Шиша Пангмы (8013 м). Главное в этом фильме - это абсолютно потрясные завораживающие съемки.-Доп. информация:
Сохранены оригинальные чаптеры как на Blu-ray
За запись звука спасибо OLARRI & qsdyg.-Сэмпл
Тип релиза: BDRemux 1080i
Контейнер: MKV
Видео: VC-1, 1920x1080p, 16:9, ~23,0Mbps, 25.000 fps
Аудио 1: Russian, AC-3, 2 channels, 48 kHz, 16 bit, 192 kbps
Аудио 2: French, DTS MA, 6 channels, 48 kHz, 16 bit, 1 510 kbps
Аудио 2: English, DTS MA, 2 channels, 48 kHz, 16 bit, 1 510 kbps
Субтитры: Russian (UTF-8), French (PGS), German (PGS) ,Italian (PGS), English (PGS)

Отчет MediaInfo

General
Unique ID : 192865901254671764286008998587486545804 (0x91189F17334F2386B28E50E8C0D5A78C)
Complete name : F:\Beyond the Summits Au-dela des cimes 2009 BDremux.mkv
Format : Matroska
Format version : Version 4 / Version 2
File size : 14.5 GiB
Duration : 1h 15mn
Overall bit rate mode : Variable
Overall bit rate : 27.4 Mbps
Movie name : Beyond The Summits (rip by SergeyS_PTI)
Encoded date : UTC 2015-01-06 20:24:50
Writing application : mkvmerge v7.4.0 ('Circles') 32bit built on Dec 12 2014 12:10:09
Writing library : libebml v1.3.0 + libmatroska v1.4.1
DURATION : 01:11:07.196000000
NUMBER_OF_FRAMES : 486
NUMBER_OF_BYTES : 49614
_STATISTICS_WRITING_APP : mkvmerge v7.4.0 ('Circles') 32bit built on Dec 12 2014 12:10:09
_STATISTICS_WRITING_DATE_UTC : 2015-01-06 20:24:50
_STATISTICS_TAGS : BPS DURATION NUMBER_OF_FRAMES NUMBER_OF_BYTES
Video
ID : 1
Format : VC-1
Format profile : AP@L3
Codec ID : WVC1
Codec ID/Hint : Microsoft
Duration : 1h 15mn
Bit rate : 23.0 Mbps
Width : 1 920 pixels
Height : 1 080 pixels
Display aspect ratio : 16:9
Frame rate : 25.000 fps
Chroma subsampling : 4:2:0
Bit depth : 8 bits
Scan type : Interlaced
Scan order : Top Field First
Compression mode : Lossy
Bits/(Pixel*Frame) : 0.444
Stream size : 12.2 GiB (84%)
Default : Yes
Forced : No
Audio #1
ID : 2
Format : AC-3
Format/Info : Audio Coding 3
Mode extension : CM (complete main)
Codec ID : A_AC3
Duration : 1h 15mn
Bit rate mode : Constant
Bit rate : 192 Kbps
Channel(s) : 2 channels
Channel positions : Front: L R
Sampling rate : 48.0 KHz
Bit depth : 16 bits
Compression mode : Lossy
Stream size : 104 MiB (1%)
Language : Russian
Default : Yes
Forced : No
Audio #2
ID : 3
Format : DTS
Format/Info : Digital Theater Systems
Format profile : MA / Core
Codec ID : A_DTS
Duration : 1h 15mn
Bit rate mode : Variable
Bit rate : 1 939 Kbps / 1 510 Kbps
Channel(s) : 6 channels
Channel positions : Front: L C R, Side: L R, LFE
Sampling rate : 48.0 KHz
Bit depth : 16 bits
Compression mode : Lossless / Lossy
Delay relative to video : 40ms
Language : French
Default : No
Forced : No
Audio #3
ID : 4
Format : DTS
Format/Info : Digital Theater Systems
Format profile : MA / Core
Codec ID : A_DTS
Duration : 1h 15mn
Bit rate mode : Variable
Bit rate : 1 708 Kbps / 1 510 Kbps
Channel(s) : 2 channels
Channel positions : Front: L R
Sampling rate : 48.0 KHz
Bit depth : 16 bits
Compression mode : Lossless / Lossy
Delay relative to video : 40ms
Language : English
Default : No
Forced : No
Text #1
ID : 5
Format : UTF-8
Codec ID : S_TEXT/UTF8
Codec ID/Info : UTF-8 Plain Text
Language : Russian
Default : No
Forced : No
Text #2
ID : 6
Format : PGS
Muxing mode : zlib
Codec ID : S_HDMV/PGS
Codec ID/Info : The same subtitle format used on BDs/HD-DVDs
Language : French
Default : No
Forced : No
Text #3
ID : 7
Format : PGS
Muxing mode : zlib
Codec ID : S_HDMV/PGS
Codec ID/Info : The same subtitle format used on BDs/HD-DVDs
Language : German
Default : No
Forced : No
Text #4
ID : 8
Format : PGS
Muxing mode : zlib
Codec ID : S_HDMV/PGS
Codec ID/Info : The same subtitle format used on BDs/HD-DVDs
Language : Italian
Default : No
Forced : No
Text #5
ID : 9
Format : PGS
Muxing mode : zlib
Codec ID : S_HDMV/PGS
Codec ID/Info : The same subtitle format used on BDs/HD-DVDs
Language : English
Default : No
Forced : No
Menu
00:00:00.000 : en:00:00:00.000
00:04:08.200 : en:00:04:08.200
00:07:41.320 : en:00:07:41.320
00:15:19.600 : en:00:15:19.600
00:22:19.440 : en:00:22:19.440
00:31:46.960 : en:00:31:46.960
00:37:40.280 : en:00:37:40.280
00:44:59.960 : en:00:44:59.960
00:50:58.520 : en:00:50:58.520
00:58:30.000 : en:00:58:30.000
01:07:54.720 : en:01:07:54.720
01:11:34.760 : en:01:11:34.760

Скриншоты

[Профиль] [ЛС]
Кто просматривает тему:

Показать сообщения:    

Текущее время: Сегодня 18:21

Часовой пояс: GMT



Вы не можете начинать темы
Вы не можете отвечать на сообщения
Вы не можете редактировать свои сообщения
Вы не можете удалять свои сообщения
Вы не можете голосовать в опросах
Вы не можете прикреплять файлы к сообщениям
Вы не можете скачивать файлы