Над вершинами / Au-delà des cimes (Реми Тезье / Rémy Tezier) [2009, документальный, спорт, экстрим, альпинизм, путешествия, BDRip 720p]

 
Автор Сообщение

TorrentFilm ®

Пол:

Стаж: 2 года

Сообщений: 7741



Награды: Нет

Торрент-статистика

Создавать темы 05-Янв-2015 00:00

[Цитировать]

Над вершинами / Au-delà des cimes
Год выпуска: 2009
Страна: Франция
Жанр: документальный, спорт, экстрим, альпинизм, путешествия
Продолжительность: 01:15:51
Перевод: Многоголосый закадровый - 1ТВЧ
Субтитры: русские (alexarjev, spaaa), английские, немецкие, итальянские, французские
Режиссёр: Реми Тезье / Rémy Tezier
Описание: Одна из лучших альпинисток мира Катрин Дестивэль совершит три впечатляющих восхождения на склоны Альп и возьмет нас собой! Мы посмотрим на горы глазами Катрин и постараемся понять: что же за страсть движет ею. Захватывающие дух съемки, великолепные пейзажи и необъятность парящих скал. Катрин Дестивель - одна из самых известных восходительниц в мире. Ее альпинистская биография полна потрясающих восхождений, соло, первопрохождений, экспедиций, побед в соревнованиях по скалолазанию в течение всех 80-х. Она совершила многочисленные восхождения по самым известным стенам, включая зимнее соло по Северной стене Эйгера всего лишь за 17 часов, или ее знаменитый первопроход по восточной стене Пти Дрю, соло, занявшее 11 дней. Она прошла зимой все три самые знаменитые Северные стены в Альпах: Эйгер, Гран Жорас, и Маттерхорн, совершила скоростное прохождение м-та Бонатти на Пти Дрю всего лишь за 4 часа, поднялась на вершину Шиша Пангмы (8013 м). Главное в этом фильме - это абсолютно потрясные завораживающие съемки.
Тип релиза: BDRip 720p
Контейнер: MKV
Видео: MPEG-4 AVC, 1920x1080 (16:9), 25.000 fps, ~6961 Kbps
Аудио: Russian AC3, 2 ch, 48KHz, 192 Kbps
Аудио: French AC3, 5.1 ch, 48KHz, 640 Kbps
Формат субтитров: softsub (SRT, PGS)
Навигация по главам: есть

MediaInfo

General
Unique ID : 210179527947518015907436413292187184596 (0x9E1F1ACACF4626E49AB4E32790BF6DD4)
Complete name : C:\Au-delà.des.cimes.2009.720p.BluRay.Rus.Fre.HDCLUB-SbR.mkv
Format : Matroska
Format version : Version 4 / Version 2
File size : 4.21 GiB
Duration : 1h 15mn
Overall bit rate : 7 951 Kbps
Encoded date : UTC 2014-11-28 05:21:33
Writing application : mkvmerge v7.3.0 ('Nouages') 64bit built on Oct 22 2014 18:53:34
Writing library : libebml v1.3.0 + libmatroska v1.4.1
_STATISTICS_WRITING_APP : mkvmerge v7.3.0 ('Nouages') 64bit built on Oct 22 2014 18:53:34
_STATISTICS_WRITING_DATE_UTC : 2014-11-28 05:21:33
_STATISTICS_TAGS : BPS DURATION NUMBER_OF_FRAMES NUMBER_OF_BYTES
DURATION : 01:15:51.040000000
NUMBER_OF_FRAMES : 142220
NUMBER_OF_BYTES : 109224960
Video
ID : 1
Format : AVC
Format/Info : Advanced Video Codec
Format profile : High@L4.1
Format settings, CABAC : Yes
Format settings, ReFrames : 9 frames
Codec ID : V_MPEG4/ISO/AVC
Duration : 1h 15mn
Bit rate : 6 961 Kbps
Width : 1 280 pixels
Height : 720 pixels
Display aspect ratio : 16:9
Frame rate mode : Constant
Frame rate : 25.000 fps
Color space : YUV
Chroma subsampling : 4:2:0
Bit depth : 8 bits
Scan type : Progressive
Bits/(Pixel*Frame) : 0.302
Stream size : 3.69 GiB (88%)
Title : Au-delà des cimes 2009
Writing library : x264 core 142 r2479kMod dd79a61
Encoding settings : cabac=1 / ref=9 / deblock=1:-3:-3 / analyse=0x3:0x133 / me=umh / subme=11 / psy=1 / fade_compensate=0.00 / psy_rd=1.00:0.00 / mixed_ref=1 / me_range=32 / chroma_me=1 / trellis=2 / 8x8dct=1 / cqm=0 / deadzone=21,11 / fast_pskip=1 / chroma_qp_offset=-2 / threads=12 / lookahead_threads=3 / sliced_threads=0 / nr=0 / decimate=1 / interlaced=0 / bluray_compat=0 / constrained_intra=0 / fgo=0 / bframes=10 / b_pyramid=2 / b_adapt=2 / b_bias=0 / direct=3 / weightb=1 / open_gop=0 / weightp=2 / keyint=250 / keyint_min=25 / scenecut=40 / intra_refresh=0 / rc=crf / mbtree=0 / crf=17.0000 / qcomp=0.65 / qpmin=0 / qpmax=69 / qpstep=4 / ip_ratio=1.25 / pb_ratio=1.20 / aq=1:0.60
Language : French
Default : Yes
Forced : No
_STATISTICS_WRITING_APP : mkvmerge v7.3.0 ('Nouages') 64bit built on Oct 22 2014 18:53:34
_STATISTICS_WRITING_DATE_UTC : 2014-11-28 05:21:33
_STATISTICS_TAGS : BPS DURATION NUMBER_OF_FRAMES NUMBER_OF_BYTES
DURATION : 01:15:50.880000000
NUMBER_OF_FRAMES : 113772
NUMBER_OF_BYTES : 4042360454
Audio #1
ID : 2
Format : AC-3
Format/Info : Audio Coding 3
Mode extension : CM (complete main)
Format settings, Endianness : Big
Codec ID : A_AC3
Duration : 1h 15mn
Bit rate mode : Constant
Bit rate : 192 Kbps
Channel(s) : 2 channels
Channel positions : Front: L R
Sampling rate : 48.0 KHz
Bit depth : 16 bits
Compression mode : Lossy
Stream size : 104 MiB (2%)
Title : AC3 2.0 @ 192 kbps - 1ТВЧ
Language : Russian
Default : Yes
Forced : No
Audio #2
ID : 3
Format : AC-3
Format/Info : Audio Coding 3
Mode extension : CM (complete main)
Format settings, Endianness : Big
Codec ID : A_AC3
Duration : 1h 15mn
Bit rate mode : Constant
Bit rate : 640 Kbps
Channel(s) : 6 channels
Channel positions : Front: L C R, Side: L R, LFE
Sampling rate : 48.0 KHz
Bit depth : 16 bits
Compression mode : Lossy
Stream size : 347 MiB (8%)
Title : AC3 5.1 @ 640 kbps
Language : French
Default : No
Forced : No
Text #1
ID : 4
Format : UTF-8
Codec ID : S_TEXT/UTF8
Codec ID/Info : UTF-8 Plain Text
Title : alexarjev, spaaa
Language : Russian
Default : No
Forced : No
Text #2
ID : 5
Format : UTF-8
Codec ID : S_TEXT/UTF8
Codec ID/Info : UTF-8 Plain Text
Language : English
Default : No
Forced : No
Text #3
ID : 6
Format : PGS
Muxing mode : zlib
Codec ID : S_HDMV/PGS
Codec ID/Info : The same subtitle format used on BDs/HD-DVDs
Title : Colored
Language : French
Default : No
Forced : No
Text #4
ID : 7
Format : UTF-8
Codec ID : S_TEXT/UTF8
Codec ID/Info : UTF-8 Plain Text
Language : German
Default : No
Forced : No
Text #5
ID : 8
Format : UTF-8
Codec ID : S_TEXT/UTF8
Codec ID/Info : UTF-8 Plain Text
Language : Italian
Default : No
Forced : No
Menu
00:00:00.000 : en:00:00:00.000
00:04:08.200 : en:00:04:08.200
00:07:41.320 : en:00:07:41.320
00:15:19.600 : en:00:15:19.600
00:22:19.440 : en:00:22:19.440
00:31:46.960 : en:00:31:46.960
00:37:40.280 : en:00:37:40.280
00:44:59.960 : en:00:44:59.960
00:50:58.520 : en:00:50:58.520
00:58:30.000 : en:00:58:30.000
01:07:54.720 : en:01:07:54.720
01:11:34.760 : en:01:11:34.760

Скриншоты

[Профиль] [ЛС]
Кто просматривает тему:

Показать сообщения:    

Текущее время: Сегодня 10:46

Часовой пояс: GMT



Вы не можете начинать темы
Вы не можете отвечать на сообщения
Вы не можете редактировать свои сообщения
Вы не можете удалять свои сообщения
Вы не можете голосовать в опросах
Вы не можете прикреплять файлы к сообщениям
Вы не можете скачивать файлы