Над Америкой / Over America (Mark Pingry) [2008, видовая документалистика, BDRip 720p]

 
Автор Сообщение

TorrentFilm ®

Пол:

Стаж: 2 года

Сообщений: 7741



Награды: Нет

Торрент-статистика

Создавать темы 27-Апр-2015 00:04

[Цитировать]

Над Америкой / Over America
Год выпуска: 2008
Страна: США
Студия: Kaboom Entertainment
Жанр: видовая документалистика
Продолжительность: 00:54:38
Перевод: Отсутствует
Русские субтитры: нет
Режиссер: Mark Pingry
Описание: Воздушные съёмки достопримечательностей Америки
Тип релиза: BDRip 720p
Контейнер: MKV
Видео: AVC, 1272x690 (16:9), 23.976 fps, 5503 Kbps
Аудио: English AC3, 2 ch, CBR 224 Kbps, 48KHz

MediaInfo

GeneralUnique ID : 233819691884131022147521481010479732729 (0xAFE808DCC57BB149A5706A24D5ED97F9)Complete name : Over America 2008 BDRip 720p.mkvFormat : MatroskaFormat version : Version 2File size : 2.19 GiBDuration : 54mn 38sOverall bit rate : 5 728 KbpsEncoded date : UTC 2011-01-17 07:15:59Writing application : mkvmerge v3.4.0 ('Rapunzel') 编译于 May 15 2010 09:38:20Writing library : libebml v0.8.0 + libmatroska v0.9.0
VideoID : 1Format : AVCFormat/Info : Advanced Video CodecFormat profile : High@L4.1Format settings, CABAC : YesFormat settings, ReFrames : 8 framesCodec ID : V_MPEG4/ISO/AVCDuration : 54mn 38sBit rate : 5 503 KbpsWidth : 1 272 pixelsHeight : 690 pixelsDisplay aspect ratio : 1.85:1Frame rate mode : ConstantFrame rate : 23.976 fpsColor space : YUVChroma subsampling : 4:2:0Bit depth : 8 bitsScan type : ProgressiveBits/(Pixel*Frame) : 0.262Stream size : 2.06 GiB (94%)Title : Over.America.2008.BluRay.720p.x264.DD20-MySiLUWriting library : x264 core 112 r1867 22bfd31Encoding settings : cabac=1 / ref=8 / deblock=1:-2:-2 / analyse=0x3:0x133 / me=umh / subme=9 / psy=1 / psy_rd=1.20:0.20 / mixed_ref=1 / me_range=16 / chroma_me=1 / trellis=2 / 8x8dct=1 / cqm=0 / deadzone=21,11 / fast_pskip=1 / chroma_qp_offset=-3 / threads=12 / sliced_threads=0 / nr=0 / decimate=0 / interlaced=0 / constrained_intra=0 / bframes=3 / b_pyramid=2 / b_adapt=2 / b_bias=0 / direct=3 / weightb=1 / open_gop=0 / weightp=2 / keyint=250 / keyint_min=2 / scenecut=40 / intra_refresh=0 / rc_lookahead=60 / rc=2pass / mbtree=1 / bitrate=5503 / ratetol=1.0 / qcomp=0.60 / qpmin=10 / qpmax=51 / qpstep=4 / cplxblur=20.0 / qblur=0.5 / vbv_maxrate=38000 / vbv_bufsize=38000 / nal_hrd=none / ip_ratio=1.40 / aq=1:1.00Language : EnglishDefault : NoForced : No
AudioID : 2Format : AC-3Format/Info : Audio Coding 3Mode extension : CM (complete main)Format settings, Endianness : BigCodec ID : A_AC3Duration : 54mn 38sBit rate mode : ConstantBit rate : 224 KbpsChannel(s) : 2 channelsChannel positions : Front: L RSampling rate : 48.0 KHzBit depth : 16 bitsCompression mode : LossyStream size : 87.6 MiB (4%)Language : EnglishDefault : YesForced : No

Скриншоты





[Профиль] [ЛС]
Кто просматривает тему:

Показать сообщения:    

Текущее время: Сегодня 08:13

Часовой пояс: GMT



Вы не можете начинать темы
Вы не можете отвечать на сообщения
Вы не можете редактировать свои сообщения
Вы не можете удалять свои сообщения
Вы не можете голосовать в опросах
Вы не можете прикреплять файлы к сообщениям
Вы не можете скачивать файлы