Надзиратель / The Parole Officer (2001) BDRip 720p от AleksSin | P2

 
Автор Сообщение

AleksSin ®

Пол:

Стаж: 6 лет

Сообщений: 218



Награды: 4 (Подробнее)

Mega Seeder 2 (Количество: 1) Mega Seeder 3 (Количество: 1) Mega Seeder 1 (Количество: 1)
Торрент-статистика

Создавать темы 19-Июл-2016 22:09

[Цитировать]

Надзиратель / The Parole OfficerГод выхода: 2001
Жанр: Комедия, криминал
Страна: Великобритания
Студия: DNA Films, Universal Pictures, The Film Council
Продолжительность: 01:34:21
Перевод: Профессиональный двухголосый (SDI-Media), профессиональный двухголосый (НТВ+), профессиональный двухголосый (Премьер Мультимедиа)
Субтитры: нет
Навигация по главам: Есть
Режиссер: Джон Дайгэн
В ролях: Стив Кугэн, Лина Хиди, Ом Пури, Стивен Вэддингтон, Бен Миллер, Дженни Агаттер, Эмма Уильямс, Стивен Диллэйн, Саймон Пегг, Джулия Дэвис, Джэйк Абрахам, Омар Шариф, Джо Энн Ноулз, Эмма Гилмор, Сьюзэн Джейн Тэннер, Иэн Митчелл, Джеймс Смит, Брюс МакГрегор, Джон Хеншоу, Бастер Ривз, Брайан Никелс, Того Игава, Ольга Грэхам, Иэн МакКи
О фильме:
Стив Гарден — самый бестолковый служитель закона в мире! После позорного увольнения с поста надзирателя нашего «доблестного» стража порядка ждёт новое назначение — в полицию Манчестера. В один из первых дней службы Стив становится свидетелем жестокого убийства. И, что самое страшное, — преступление хладнокровно совершил ведущий инспектор полиции. Как быть?...

Файл
Кодек: х264
Качество: BDRip 720p
Видео: 1280x694 (1,85:1) at 23.976 fps, AVC at 7143 kbps avg, 0.335 bit/pixel
Аудио 1: 48 kHz, AC3, 2/0 (L,R) ch, ~192.00 kbps avg , Русский (MVO, SDI-Media)
Аудио 2: 48 kHz, AC3, 2/0 (L,R) ch, ~192.00 kbps avg , Русский (MVO, НТВ+)
Аудио 3: 48 kHz, AC3, 2/0 (L,R) ch, ~192.00 kbps avg , Русский (MVO, Премьер Мультимедиа)
Аудио 4: 48 kHz, AC3, 6 ch, 448 kbps, Английский (Оригинал)

MediaInfo

Log
x264 [info]: frame I:1397 Avg QP:16.69 size:132104
x264 [info]: frame P:27621 Avg QP:17.61 size: 62847
x264 [info]: frame B:106654 Avg QP:18.94 size: 30468
x264 [info]: consecutive B-frames: 1.8% 1.6% 5.3% 16.8% 19.9% 46.3% 6.4% 1.3% 0.8%
Общее
Уникальный идентификатор : 209058006601191562272162511733607505302 (0x9D471B854C408A2AA8D3FAED66021D96)
Полное имя : S:ФильмыНадзиратель. 2001. BDRip 720p (AleksSin).mkv
Формат : Matroska
Версия формата : Version 2
Размер файла : 5,49 Гбайт
Продолжительность : 1 ч. 34 м.
Общий поток : 8333 Кбит/сек
Дата кодирования : UTC 2016-07-19 21:43:37
Программа кодирования : mkvmerge v7.8.0 ('River Man') 32bit built on Apr 3 2015 12:11:22
Библиотека кодирования : libebml v1.3.1 + libmatroska v1.4.2
Видео
Идентификатор : 1
Формат : AVC
Формат/Информация : Advanced Video Codec
Профиль формата : High@L4.1
Параметр CABAC формата : Да
Параметр ReFrames формата : 9 кадров
Идентификатор кодека : V_MPEG4/ISO/AVC
Продолжительность : 1 ч. 34 м.
Битрейт : 7143 Кбит/сек
Ширина : 1280 пикселей
Высота : 694 пикселя
Соотношение сторон : 1,85:1
Режим частоты кадров : Постоянный
Частота кадров : 23,976 кадра/сек
Цветовое пространство : YUV
Субдискретизация насыщенности : 4:2:0
Битовая глубина : 8 бит
Тип развёртки : Прогрессивная
Бит/(Пиксели*Кадры) : 0.335
Размер потока : 4,71 Гбайт (86%)
Библиотека кодирования : x264 core 148 r2692 64f4e24
Настройки программы : cabac=1 / ref=9 / deblock=1:-3:-3 / analyse=0x3:0x133 / me=umh / subme=11 / psy=1 / psy_rd=1.00:0.10 / mixed_ref=1 / me_range=32 / chroma_me=1 / trellis=2 / 8x8dct=1 / cqm=0 / deadzone=21,11 / fast_pskip=0 / chroma_qp_offset=-3 / threads=12 / lookahead_threads=2 / sliced_threads=0 / nr=0 / decimate=1 / interlaced=0 / bluray_compat=0 / constrained_intra=0 / bframes=8 / b_pyramid=2 / b_adapt=2 / b_bias=0 / direct=3 / weightb=1 / open_gop=0 / weightp=2 / keyint=240 / keyint_min=23 / scenecut=40 / intra_refresh=0 / rc_lookahead=60 / rc=crf / mbtree=0 / crf=18.0 / qcomp=0.70 / qpmin=0 / qpmax=69 / qpstep=4 / vbv_maxrate=50000 / vbv_bufsize=62500 / crf_max=0.0 / nal_hrd=none / filler=0 / ip_ratio=1.30 / pb_ratio=1.20 / aq=3:0.80
Default : Да
Forced : Нет
Аудио #1
Идентификатор : 2
Формат : AC-3
Формат/Информация : Audio Coding 3
Расширение режима : CM (complete main)
Параметр Endianness формата : Big
Идентификатор кодека : A_AC3
Продолжительность : 1 ч. 34 м.
Вид битрейта : Постоянный
Битрейт : 192 Кбит/сек
Каналы : 2 канала
Расположение каналов : Front: L R
Частота : 48,0 КГц
Битовая глубина : 16 бит
Метод сжатия : С потерями
Размер потока : 130 Мбайт (2%)
Заголовок : MVO, SDI-Media
Язык : Russian
Default : Да
Forced : Нет
Аудио #2
Идентификатор : 3
Формат : AC-3
Формат/Информация : Audio Coding 3
Профиль формата : Dolby Digital
Расширение режима : CM (complete main)
Параметр Endianness формата : Big
Идентификатор кодека : A_AC3
Продолжительность : 1 ч. 34 м.
Вид битрейта : Постоянный
Битрейт : 192 Кбит/сек
Каналы : 2 канала
Расположение каналов : Front: L R
Частота : 48,0 КГц
Битовая глубина : 16 бит
Метод сжатия : С потерями
Размер потока : 130 Мбайт (2%)
Заголовок : НТВ+
Язык : Russian
Default : Нет
Forced : Нет
Аудио #3
Идентификатор : 4
Формат : AC-3
Формат/Информация : Audio Coding 3
Профиль формата : Dolby Digital
Расширение режима : CM (complete main)
Параметр Endianness формата : Big
Идентификатор кодека : A_AC3
Продолжительность : 1 ч. 34 м.
Вид битрейта : Постоянный
Битрейт : 192 Кбит/сек
Каналы : 2 канала
Расположение каналов : Front: L R
Частота : 48,0 КГц
Битовая глубина : 16 бит
Метод сжатия : С потерями
Размер потока : 130 Мбайт (2%)
Заголовок : Премьер Мультимедиа
Язык : Russian
Default : Нет
Forced : Нет
Аудио #4
Идентификатор : 5
Формат : AC-3
Формат/Информация : Audio Coding 3
Расширение режима : CM (complete main)
Параметр Endianness формата : Big
Идентификатор кодека : A_AC3
Продолжительность : 1 ч. 34 м.
Вид битрейта : Постоянный
Битрейт : 448 Кбит/сек
Каналы : 6 каналов
Расположение каналов : Front: L C R, Side: L R, LFE
Частота : 48,0 КГц
Битовая глубина : 16 бит
Метод сжатия : С потерями
Размер потока : 302 Мбайт (5%)
Заголовок : Оригинал
Default : Нет
Forced : Нет
Меню
00:00:00.000 : en:
00:05:00.000 : en:
00:10:00.000 : en:
00:15:00.000 : en:
00:20:00.000 : en:
00:25:00.000 : en:
00:30:00.000 : en:
00:35:00.000 : en:
00:40:00.000 : en:
00:45:00.000 : en:
00:50:00.000 : en:
00:55:00.000 : en:
01:00:00.000 : en:
01:05:00.000 : en:
01:10:00.000 : en:
01:15:00.000 : en:
01:20:00.000 : en:
01:25:00.000 : en:
01:30:00.000 : en:

Скриншоты

[Профиль] [ЛС]
Кто просматривает тему:

Форум Тема Автор Размер
R.G.TorrentFilm Video Надзиратель / The Parole Officer (2001) HDRip от AleksSin | P2 AleksSin 2.18 GB
Показать сообщения:    

Текущее время: Сегодня 02:26

Часовой пояс: GMT



Вы не можете начинать темы
Вы не можете отвечать на сообщения
Вы не можете редактировать свои сообщения
Вы не можете удалять свои сообщения
Вы не можете голосовать в опросах
Вы не можете прикреплять файлы к сообщениям
Вы не можете скачивать файлы