Наваждение / Unforgettable (2017) BDRip 1080p | Лицензия

 
Автор Сообщение

BOSS ®

Пол:

Стаж: 3 года 2 месяца

Сообщений: 8515

Откуда: ODESSA



Награды: 22 (Подробнее)

Mega Seeder 3 (Количество: 1) Top Seeder 4 (Количество: 1) Mega Seeder 2 (Количество: 1)
Торрент-статистика

Создавать темы 07-Авг-2017 11:41

[Цитировать]

Название: Наваждение
Оригинальное название: Unforgettable
Год выхода: 2017
Страна: США
Студия: DiNovi Pictures
Продолжительность: 01:40:08
Жанр: триллер, драма
Режиссер: Дениз Ди Нови
В ролях: Розарио Доусон, Кэтрин Хейгл, Джофф Стульц, Шерил Лэдд, Уитни Каммингс, Роберт Уиздом, Саймон Кассианидес, Джэйсон Блэр, Изабелла Кай Райс, Алекс Кихано, ...
Перевод:
- Профессиональный (дублированный) Мосфильм-Мастер
- Субтитры
О фильме: Тесса Конновер тяжело переживает развод с мужем Дэвидом. Он теперь счастливо помолвлен с Джулией Бэнкс, которая вторгается не только в дом, в котором они когда-то жили с Тессой, но и в жизнь их дочери Лили. Джулия, в своей новой роли жены и мачехи, отчаянно верит, что, наконец, встретила мужчину своей мечты, который поможет ей забыть ее беспокойное прошлое. Но зависть Тессы набирает обороты, и ничто не помешает ей превратить мечту Джулии в ее худший кошмар…

Кодек: x264
Качество: BDRip 1080p
Видео: 1920x1080, 10000 kbps, 23,976 fps
Аудио #1: AC-3, 6 ch, 640 kbps (Rus) - Dub Мосфильм-Мастер
Аудио #2: DTS, 6 ch, 1509 kbps (Eng)
Субтитры: Русские (Forced, Full), Английские
Спасибо за исходник

MediaInfo

x264 [info]: frame I:1208 Avg QP:14.18 size:267806
x264 [info]: frame P:29559 Avg QP:16.79 size:108784
x264 [info]: frame B:113282 Avg QP:18.77 size: 34989
x264 [info]: consecutive B-frames: 1.8% 2.2% 6.3% 12.2% 23.6% 42.9% 8.3% 1.1% 0.8% 0.3% 0.5%
Общее
Уникальный идентификатор : 221631465998562490995224238199087396189 (0xA6BCAAEE4A14725DA19F0C841399755D)
Полное имя : Наваждение (Unforgettable) 2017 BDRip 1080p.mkv
Формат : Matroska
Версия формата : Version 2
Размер файла : 8,49 Гбайт
Продолжительность : 1 ч. 40 м.
Общий поток : 12,1 Мбит/сек
Дата кодирования : UTC 2017-08-01 12:35:59
Программа кодирования : mkvmerge v4.0.0 ('The Stars were mine') сборка от Jun 6 2010 16:18:42
Библиотека кодирования : libebml v1.0.0 + libmatroska v1.0.0
Видео
Идентификатор : 1
Формат : AVC
Формат/Информация : Advanced Video Codec
Профиль формата : High@L4.1
Параметр CABAC формата : Да
Параметр ReFrames формата : 4 кадра
Идентификатор кодека : V_MPEG4/ISO/AVC
Продолжительность : 1 ч. 40 м.
Битрейт : 10000 Кбит/сек
Ширина : 1920 пикселей
Высота : 1080 пикселей
Соотношение сторон : 16:9
Режим частоты кадров : Постоянный
Частота кадров : 23,976 (24000/1001) кадра/сек
Цветовое пространство : YUV
Субдискретизация насыщенности : 4:2:0
Битовая глубина : 8 бит
Тип развёртки : Прогрессивная
Бит/(Пиксели*Кадры) : 0.201
Размер потока : 6,82 Гбайт (80%)
Библиотека кодирования : x264 core 146 r2538 121396c
Настройки программы : cabac=1 / ref=4 / deblock=1:-3:-3 / analyse=0x3:0x133 / me=umh / subme=11 / psy=1 / psy_rd=1.00:0.00 / mixed_ref=1 / me_range=32 / chroma_me=1 / trellis=2 / 8x8dct=1 / cqm=0 / deadzone=21,11 / fast_pskip=0 / chroma_qp_offset=-2 / threads=12 / lookahead_threads=2 / sliced_threads=0 / nr=0 / decimate=0 / interlaced=0 / bluray_compat=0 / constrained_intra=0 / bframes=10 / b_pyramid=2 / b_adapt=2 / b_bias=0 / direct=3 / weightb=1 / open_gop=0 / weightp=2 / keyint=240 / keyint_min=23 / scenecut=40 / intra_refresh=0 / rc=2pass / mbtree=0 / bitrate=10000 / ratetol=1.0 / qcomp=0.60 / qpmin=0 / qpmax=69 / qpstep=4 / cplxblur=20.0 / qblur=0.5 / ip_ratio=1.40 / pb_ratio=1.30 / aq=1:0.80
Язык : English
Default : Нет
Forced : Нет
Аудио #1
Идентификатор : 2
Формат : AC-3
Формат/Информация : Audio Coding 3
Расширение режима : CM (complete main)
Параметр Endianness формата : Big
Идентификатор кодека : A_AC3
Продолжительность : 1 ч. 40 м.
Вид битрейта : Постоянный
Битрейт : 640 Кбит/сек
Каналы : 6 каналов
Расположение каналов : Front: L C R, Side: L R, LFE
Частота : 48,0 КГц
Частота кадров : 31,250 кадров/сек (1536 spf)
Метод сжатия : С потерями
Размер потока : 458 Мбайт (5%)
Заголовок : Dub Мосфильм-Мастер
Язык : Russian
Default : Нет
Forced : Нет
Аудио #2
Идентификатор : 3
Формат : DTS
Формат/Информация : Digital Theater Systems
Режим : 16
Параметр Endianness формата : Big
Идентификатор кодека : A_DTS
Продолжительность : 1 ч. 40 м.
Вид битрейта : Постоянный
Битрейт : 1509 Кбит/сек
Каналы : 6 каналов
Расположение каналов : Front: L C R, Side: L R, LFE
Частота : 48,0 КГц
Частота кадров : 93,750 кадра/сек (512 spf)
Битовая глубина : 24 бит
Метод сжатия : С потерями
Размер потока : 1,06 Гбайт (12%)
Язык : English
Default : Нет
Forced : Нет
Текст #1
Идентификатор : 4
Формат : UTF-8
Идентификатор кодека : S_TEXT/UTF8
Идентификатор кодека/Информация : UTF-8 Plain Text
Заголовок : Forced
Язык : Russian
Default : Нет
Forced : Нет
Текст #2
Идентификатор : 5
Формат : UTF-8
Идентификатор кодека : S_TEXT/UTF8
Идентификатор кодека/Информация : UTF-8 Plain Text
Язык : Russian
Default : Нет
Forced : Нет
Текст #3
Идентификатор : 6
Формат : UTF-8
Идентификатор кодека : S_TEXT/UTF8
Идентификатор кодека/Информация : UTF-8 Plain Text
Заголовок : SDH
Язык : English
Default : Нет
Forced : Нет
Текст #4
Идентификатор : 7
Формат : UTF-8
Идентификатор кодека : S_TEXT/UTF8
Идентификатор кодека/Информация : UTF-8 Plain Text
Заголовок : SDH (Colored)
Язык : English
Default : Нет
Forced : Нет

[Профиль] [ЛС]
Показать сообщения:    

Текущее время: Сегодня 09:34

Часовой пояс: GMT



Вы не можете начинать темы
Вы не можете отвечать на сообщения
Вы не можете редактировать свои сообщения
Вы не можете удалять свои сообщения
Вы не можете голосовать в опросах
Вы не можете прикреплять файлы к сообщениям
Вы не можете скачивать файлы