Мятная конфета / Bakha satang (1999) BDRip 720p | L1

 
Автор Сообщение

Russian Mafia ®

Пол:

Стаж: 1 год 8 месяцев

Сообщений: 4253



Награды: 10 (Подробнее)

Mega Seeder 3 (Количество: 1) Top Releaser 5 (Количество: 1) Mega Seeder 4 (Количество: 1)
Торрент-статистика

Создавать темы 03-Авг-2016 05:28

[Цитировать]

Мятная конфета / Peppermint Candy / Bakha satang
Страна: Южная Корея Япония
Производство: East Film Company
Год выпуска: 1999
Жанр: драма
Продолжительность: 02:10:17
Режиссер: Ли Чхан-дон
Автор сценария: Ли Чхан-дон
В ролях: Ким Ё-джин, Соль Гён-гу, Со Джон, Мун Со-ри, Ким Ин-гвон, Ко Со-хи, Ли Дэ-ён, Пак Сэ-бом, Ю Ен Су, Чон Мин-сон
Описание: История несчастного человека, обеспокоенного будущим и отягощенного печальным опытом прошлого...

Перевод: Любительский (одноголосый) | D.I.M + Любительский (одноголосый) | viare
Субтитры: русские, английские-Качество: BDRip 720p
Формат: MKV
Видео кодек: AVC
Аудио кодек: AС3 | DTS
Видео: 1280x720 (16:9), 23.976 fps, MPEG-4 AVC ~10.5 Mbps
Аудио №1: 48.0 kHz, AC3 Dolby Digital, 2/0 (L,R) ch, ~256 kbps | RUS / D.I.M
Аудио №2: 48.0 kHz, AC3 Dolby Digital, 2/0 (L,R) ch, ~224 kbps | RUS / viare
Аудио №3: 48.0 kHz, Digital Theater Systems, 2/0 (L,R) ch, ~1509 kbps avg | KOR
Формат субтитров: UTF-8 Plain Text
Дата премьеры (мир): 14 октября 1999

Релиз от:

Media Info

General
Уникальный идентификатор : 253482028286036408657637168206952229792 (0xBEB2DCE4A7DB7BFA96913A3FF8336BA0)
Полное имя : Peppermint.Candy.1999.BDRip.720p_by_vedigo.mkv
Формат : Matroska
Версия формата : Version 4 / Version 2
Размер файла : 11,4 Гбайт
Продолжительность : 2 ч. 10 м.
Общий поток : 12,5 Мбит/сек
Название фильма : Peppermint.Candy.1999.BDRip.720p_by_vedigo
Дата кодирования : UTC 2016-08-02 23:16:04
Программа кодирования : mkvmerge v9.3.1 ('Mask Machine') 64bit
Библиотека кодирования : libebml v1.3.4 + libmatroska v1.4.5
Видео
Идентификатор : 1
Формат : AVC
Формат/Информация : Advanced Video Codec
Профиль формата : High@L4.1
Параметр CABAC формата : Да
Параметр ReFrames формата : 9 кадров
Идентификатор кодека : V_MPEG4/ISO/AVC
Продолжительность : 2 ч. 10 м.
Битрейт : 10,5 Мбит/сек
Ширина : 1280 пикселей
Высота : 720 пикселей
Соотношение сторон : 16:9
Режим частоты кадров : Постоянный
Частота кадров : 23,976 (24000/1001) кадра/сек
Цветовое пространство : YUV
Субдискретизация насыщенности : 4:2:0
Битовая глубина : 8 бит
Тип развёртки : Прогрессивная
Бит/(Пиксели*Кадры) : 0.475
Размер потока : 9,55 Гбайт (84%)
Заголовок : Peppermint.Candy.1999.BDRip.720p_by_vedigo
Библиотека кодирования : x264 core 148 r2705 3f5ed56
Настройки программы : cabac=1 / ref=9 / deblock=1:-3:-3 / analyse=0x3:0x133 / me=umh / subme=11 / psy=1 / psy_rd=1.00:0.10 / mixed_ref=1 / me_range=48 / chroma_me=1 / trellis=2 / 8x8dct=1 / cqm=0 / deadzone=21,11 / fast_pskip=0 / chroma_qp_offset=-3 / threads=12 / lookahead_threads=3 / sliced_threads=0 / nr=0 / decimate=1 / interlaced=0 / bluray_compat=0 / constrained_intra=0 / bframes=10 / b_pyramid=2 / b_adapt=2 / b_bias=0 / direct=3 / weightb=1 / open_gop=0 / weightp=2 / keyint=250 / keyint_min=23 / scenecut=40 / intra_refresh=0 / rc_lookahead=40 / rc=2pass / mbtree=0 / bitrate=10500 / ratetol=1.0 / qcomp=0.60 / qpmin=0 / qpmax=69 / qpstep=4 / cplxblur=20.0 / qblur=0.5 / vbv_maxrate=50000 / vbv_bufsize=62500 / nal_hrd=none / filler=0 / ip_ratio=1.40 / pb_ratio=1.30 / aq=1:0.90
Default : Да
Forced : Нет
Аудио #1
Идентификатор : 2
Формат : AC-3
Формат/Информация : Audio Coding 3
Расширение режима : CM (complete main)
Параметр Endianness формата : Big
Идентификатор кодека : A_AC3
Продолжительность : 2 ч. 10 м.
Вид битрейта : Постоянный
Битрейт : 256 Кбит/сек
Каналы : 2 канала
Расположение каналов : Front: L R
Частота : 48,0 КГц
Частота кадров : 31,250 кадров/сек (1536 spf)
Метод сжатия : С потерями
Размер потока : 238 Мбайт (2%)
Заголовок : VO @ D.I.M
Язык : Russian
Default : Да
Forced : Нет
Аудио #2
Идентификатор : 3
Формат : AC-3
Формат/Информация : Audio Coding 3
Расширение режима : CM (complete main)
Параметр Endianness формата : Big
Идентификатор кодека : A_AC3
Продолжительность : 2 ч. 10 м.
Вид битрейта : Постоянный
Битрейт : 224 Кбит/сек
Каналы : 2 канала
Расположение каналов : Front: L R
Частота : 48,0 КГц
Частота кадров : 31,250 кадров/сек (1536 spf)
Метод сжатия : С потерями
Размер потока : 209 Мбайт (2%)
Заголовок : VO @ viare
Язык : Russian
Default : Нет
Forced : Нет
Аудио #3
Идентификатор : 4
Формат : DTS
Формат/Информация : Digital Theater Systems
Режим : 16
Параметр Endianness формата : Big
Идентификатор кодека : A_DTS
Продолжительность : 2 ч. 10 м.
Вид битрейта : Постоянный
Битрейт : 1509 Кбит/сек
Каналы : 2 канала
Расположение каналов : Front: L R
Частота : 48,0 КГц
Частота кадров : 93,750 кадра/сек (512 spf)
Битовая глубина : 24 бит
Метод сжатия : С потерями
Размер потока : 1,37 Гбайт (12%)
Заголовок : Original
Язык : Korean
Default : Нет
Forced : Нет
Текст #1
Идентификатор : 5
Формат : UTF-8
Идентификатор кодека : S_TEXT/UTF8
Идентификатор кодека/Информация : UTF-8 Plain Text
Продолжительность : 2 ч. 5 м.
Битрейт : 49 бит/сек
Count of elements : 922
Размер потока : 45,1 Кбайт (0%)
Заголовок : Subtitle rus
Язык : Russian
Default : Нет
Forced : Нет
Текст #2
Идентификатор : 6
Формат : UTF-8
Идентификатор кодека : S_TEXT/UTF8
Идентификатор кодека/Информация : UTF-8 Plain Text
Продолжительность : 2 ч. 5 м.
Битрейт : 28 бит/сек
Count of elements : 924
Размер потока : 26,0 Кбайт (0%)
Заголовок : Subtitle eng
Язык : English
Default : Нет
Forced : Нет
Меню
00:00:00.000 : en:00:00:00.000
00:12:13.024 : en:00:12:13.024
00:21:35.753 : en:00:21:35.753
00:30:51.641 : en:00:30:51.641
00:38:47.158 : en:00:38:47.158
00:47:04.238 : en:00:47:04.238
00:56:23.130 : en:00:56:23.130
01:05:13.993 : en:01:05:13.993
01:13:05.506 : en:01:13:05.506
01:24:01.036 : en:01:24:01.036
01:30:51.696 : en:01:30:51.696
01:35:58.002 : en:01:35:58.002
01:43:14.438 : en:01:43:14.438
01:49:55.756 : en:01:49:55.756
01:59:48.181 : en:01:59:48.181

Скриншоты

[Профиль] [ЛС]
Кто просматривает тему:

Форум Тема Автор Размер
Азиатские фильмы Мятная конфета / Bakha satang (1999) BDRip от Koenig | L1 Russian Mafia 1.45 GB
Показать сообщения:    

Текущее время: Сегодня 18:50

Часовой пояс: GMT



Вы не можете начинать темы
Вы не можете отвечать на сообщения
Вы не можете редактировать свои сообщения
Вы не можете удалять свои сообщения
Вы не можете голосовать в опросах
Вы не можете прикреплять файлы к сообщениям
Вы не можете скачивать файлы