Мэнсфилд Парк / Mansfield Park (Айэйн Б. МакДональд / Iain B. MacDonald) [2007, Великобритания, мелодрама, драма, HDRip] MVO (Селена Интернешнл) + MVO (Hallmark) + Sub Rus + Original Eng

 
Автор Сообщение

TorrentFilm ®

Пол:

Стаж: 2 года

Сообщений: 7741



Награды: Нет

Торрент-статистика

Создавать темы 03-Ноя-2015 00:08

[Цитировать]

Мэнсфилд Парк / Mansfield Park
Страна: Великобритания
Жанр: мелодрама, драма
Год выпуска: 2007
Продолжительность: 01:32:42
Перевод: Профессиональный (многоголосый закадровый) - Селена Интернешнл ТВЦ
Перевод: Профессиональный (многоголосый закадровый) - Hallmark
Cубтитры: русские (Vetter2007)
Оригинальная аудиодорожка: английский

Режиссер: Айэйн Б. МакДональд / Iain B. MacDonald
В ролях: Билли Пайпер, Джемма Редгрейв, Мэгги О’Нил, Блейк Ритсон, Хейли Этвелл, Джо Битти, Джеймс Д’Арси, Мишель Райан, Рори Киннер, Катрин Стэдмен
Описание: В двенадцатилетнем возрасте Фанни Прайс оказалась в родовом поместье её богатых родственников. Умная и прилежная, она лишена материнского тепла и заботы, и по-настоящему дружна только со своим кузеном Эдмундом. Через несколько лет Фанни превращается в очаровательную девушку и должна решить: выбрать ли ей благополучие или последовать зову сердца.
Качество видео: HDRip
Формат видео: AVI
Видео: 704x400 (1.76:1), 25 fps, XviD build 73 ~2045 kbps avg, 0.29 bit/pixel
Аудио: 48 kHz, AC3 Dolby Digital, 2/0 (L,R) ch, ~192 kbps - Селена Интернешнл
отдельными файлами:
Аудио: 48 kHz, AC3 Dolby Digital, 2/0 (L,R) ch, ~192 kbps - Hallmark
Аудио: 48 kHz, AC3 Dolby Digital, 2/0 (L,R) ch, ~192 kbps - оригинал

Сравнение

http://torrentfilm.net/forum/viewtopic.php?t=2609094
http://screenshotcomparison.com/comparison/149060
http://torrentfilm.net/forum/viewtopic.php?t=361627
http://screenshotcomparison.com/comparison/149062
http://torrentfilm.net/forum/viewtopic.php?t=797081 - тут вообще без комментариев + полчаса рекламы (2 минуты в начале и очень много после титров)
Звук из этой раздачи вытащил и подогнал отдельной дорожкой здесь, она же Hallmark
http://screenshotcomparison.com/comparison/149064

MediaInfo

Общее
Полное имя : H:\Mansfield.Park.2007.hdrip_[1.46]_[teko]\Mansfield.Park.2007.hdrip_[1.46].avi
Формат : AVI
Формат/Информация : Audio Video Interleave
Размер файла : 1,46 Гбайт
Продолжительность : 1 ч. 32 м.
Общий поток : 2248 Кбит/сек
Программа кодирования : VirtualDubMod 1.5.10.3 | www.virtualdub-fr.org || (build 2550/release)
Библиотека кодирования : VirtualDubMod build 2550/release
Видео
Идентификатор : 0
Формат : MPEG-4 Visual
Профиль формата : Advanced Simple@L5
Параметр BVOP формата : 1
Параметр QPel формата : Нет
Параметр GMC формата : Без точки перехода
Параметр матрицы формата : Выборочная
Идентификатор кодека : XVID
Идентификатор кодека/Подсказка : XviD
Продолжительность : 1 ч. 32 м.
Битрейт : 2046 Кбит/сек
Ширина : 704 пикселя
Высота : 400 пикселей
Соотношение сторон : 16:9
Частота кадров : 25,000 кадров/сек
Цветовое пространство : YUV
Субдискретизация насыщенности : 4:2:0
Битовая глубина : 8 бит
Тип развёртки : Прогрессивная
Метод сжатия : С потерями
Бит/(Пиксели*Кадры) : 0.291
Размер потока : 1,32 Гбайт (91%)
Библиотека кодирования : XviD 73
Аудио
Идентификатор : 1
Формат : AC-3
Формат/Информация : Audio Coding 3
Расширение режима : CM (complete main)
Параметр Endianness формата : Big
Идентификатор кодека : 2000
Продолжительность : 1 ч. 32 м.
Вид битрейта : Постоянный
Битрейт : 192 Кбит/сек
Каналы : 2 канала
Расположение каналов : Front: L R
Частота : 48,0 КГц
Битовая глубина : 16 бит
Метод сжатия : С потерями
Размер потока : 127 Мбайт (9%)
Выравнивание : Разделение по промежуткам
Продолжительность промежутка : 40 мс. (1,00 видеокадр)
Время предзагрузки промежутка : 500 мс.
Релиз группы:
--
[Профиль] [ЛС]
Кто просматривает тему:

Форум Тема Автор Размер
Мировая классика Джейн Остин - Мэнсфилд-парк [Маргарита Захария, 2014] Magnat 1.6 GB
Показать сообщения:    

Текущее время: Сегодня 05:13

Часовой пояс: GMT



Вы не можете начинать темы
Вы не можете отвечать на сообщения
Вы не можете редактировать свои сообщения
Вы не можете удалять свои сообщения
Вы не можете голосовать в опросах
Вы не можете прикреплять файлы к сообщениям
Вы не можете скачивать файлы