Мэгги / Maggie (2015) BDRip 1080p | iTunes

 
Автор Сообщение

BOSS ®

Пол:

Стаж: 2 года 1 месяц

Сообщений: 3738

Откуда: ODESSA



Награды: 20 (Подробнее)

Mega Releaser 1 (Количество: 1) Top Releaser 2 (Количество: 1) Top Keeper 1 (Количество: 1)
Торрент-статистика

Создавать темы 29-Окт-2015 05:43

[Цитировать]

Информация о фильме
Название: Зараженная / Мэгги
Оригинальное название: Maggie
Год выхода: 2015
Жанр: ужасы, триллер, драма
Режиссер: Генри Хобсон
В ролях: Арнольд Шварценеггер, Эбигейл Бреслин, Джоэли Ричардсон, Лора Кайюэтт, Денис Уильямсон, Дж.Д. Эвермор, Рэден Грир, Дэна Гурье, Эми Брассетт, Эйден Флауэрс
О фильме: Девочка-подросток Мэгги заражается болезнью, медленно превращающей инфицированных в зомби. Правительство организует карантин для инфицированных, где их помещают в изоляцию. Её любящий отец не готов помещать её в карантин, и она живёт вместе с ним.

Выпущено: Швейцария, США / Lionsgate, Grindstone Entertainment Group, Gold Star Films
Продолжительность: 01:35:04
Озвучивание: Профессиональное (многоголосое) [iTunes]
Файл
Качество: BDRip 1080p
Видео: MPEG-4 AVC, 17 Мбит/с, 1920x800
Аудио: Russian: AC3, 384 kb/s (6 ch) / English: DTS, 1509 kb/s (6 ch)

Скриншоты

MediaInfo

General
Unique ID : 196409267251329874204316532969511175025 (0x93C30C85B90E5D1192F8E1689A59C371)
Complete name : D:Видео3apazh0H41a.2015.P.BDRip.1080p.mkv
Format : Matroska
Format version : Version 4 / Version 2
File size : 12.5 GiB
Duration : 1h 35mn
Overall bit rate : 18.9 Mbps
Movie name : Maggie.2015
Encoded date : UTC 2015-10-28 18:17:34
Writing application : mkvmerge v8.3.0 ('Over the Horizon') 64bit
Writing library : libebml v1.3.1 + libmatroska v1.4.2
DURATION : 01:32:07.439000000
NUMBER_OF_FRAMES : 840
NUMBER_OF_BYTES : 25156
_STATISTICS_WRITING_APP : mkvmerge v8.3.0 ('Over the Horizon') 64bit
_STATISTICS_WRITING_DATE_UTC : 2015-10-28 18:17:34
_STATISTICS_TAGS : BPS DURATION NUMBER_OF_FRAMES NUMBER_OF_BYTES
Video
ID : 1
Format : AVC
Format/Info : Advanced Video Codec
Format profile : High@L4.1
Format settings, CABAC : Yes
Format settings, ReFrames : 5 frames
Codec ID : V_MPEG4/ISO/AVC
Duration : 1h 35mn
Bit rate : 17.0 Mbps
Width : 1 920 pixels
Height : 800 pixels
Display aspect ratio : 2.40:1
Frame rate mode : Constant
Frame rate : 23.976 fps
Color space : YUV
Chroma subsampling : 4:2:0
Bit depth : 8 bits
Scan type : Progressive
Bits/(Pixel*Frame) : 0.462
Stream size : 11.0 GiB (88%)
Title : Maggie.2015
Writing library : x264 core 146 r2538 121396c
Encoding settings : cabac=1 / ref=5 / deblock=1:-2:-2 / analyse=0x3:0x33 / me=umh / subme=11 / psy=1 / psy_rd=1.10:0.10 / mixed_ref=1 / me_range=32 / chroma_me=1 / trellis=2 / 8x8dct=1 / cqm=0 / deadzone=21,11 / fast_pskip=0 / chroma_qp_offset=-3 / threads=12 / lookahead_threads=2 / sliced_threads=0 / nr=0 / decimate=0 / interlaced=0 / bluray_compat=0 / constrained_intra=0 / bframes=9 / b_pyramid=2 / b_adapt=2 / b_bias=0 / direct=3 / weightb=1 / open_gop=0 / weightp=2 / keyint=240 / keyint_min=23 / scenecut=40 / intra_refresh=0 / rc=2pass / mbtree=0 / bitrate=17000 / ratetol=1.0 / qcomp=0.60 / qpmin=0 / qpmax=69 / qpstep=4 / cplxblur=20.0 / qblur=0.5 / ip_ratio=1.40 / pb_ratio=1.30 / aq=3:0.90
Language : English
Default : Yes
Forced : No
DURATION : 01:35:03.499000000
NUMBER_OF_FRAMES : 136747
NUMBER_OF_BYTES : 12111266535
_STATISTICS_WRITING_APP : mkvmerge v8.3.0 ('Over the Horizon') 64bit
_STATISTICS_WRITING_DATE_UTC : 2015-10-28 18:17:34
_STATISTICS_TAGS : BPS DURATION NUMBER_OF_FRAMES NUMBER_OF_BYTES
Audio #1
ID : 2
Format : AC-3
Format/Info : Audio Coding 3
Mode extension : CM (complete main)
Format settings, Endianness : Big
Codec ID : A_AC3
Duration : 1h 35mn
Bit rate mode : Constant
Bit rate : 384 Kbps
Channel(s) : 6 channels
Channel positions : Front: L C R, Side: L R, LFE
Sampling rate : 48.0 KHz
Bit depth : 16 bits
Compression mode : Lossy
Stream size : 261 MiB (2%)
Language : Russian
Default : Yes
Forced : No
Audio #2
ID : 3
Format : DTS
Format/Info : Digital Theater Systems
Mode : 16
Format settings, Endianness : Big
Codec ID : A_DTS
Duration : 1h 35mn
Bit rate mode : Constant
Bit rate : 1 509 Kbps
Channel(s) : 6 channels
Channel positions : Front: L C R, Side: L R, LFE
Sampling rate : 48.0 KHz
Bit depth : 24 bits
Compression mode : Lossy
Stream size : 1.00 GiB (8%)
Language : English
Default : No
Forced : No
Text #1
ID : 4
Format : UTF-8
Codec ID : S_TEXT/UTF8
Codec ID/Info : UTF-8 Plain Text
Title : Full
Language : English
Default : No
Forced : No
Text #2
ID : 5
Format : UTF-8
Codec ID : S_TEXT/UTF8
Codec ID/Info : UTF-8 Plain Text
Title : SDH
Language : English
Default : No
Forced : No
Menu
00:00:00.000 : en:00:00:00.000
00:05:52.936 : en:00:05:52.936
00:11:26.102 : en:00:11:26.102
00:15:55.121 : en:00:15:55.121
00:21:30.498 : en:00:21:30.498
00:26:50.609 : en:00:26:50.609
00:35:09.065 : en:00:35:09.065
00:39:17.939 : en:00:39:17.939
00:43:35.780 : en:00:43:35.780
00:50:51.131 : en:00:50:51.131
00:58:38.014 : en:00:58:38.014
01:02:09.517 : en:01:02:09.517
01:10:28.808 : en:01:10:28.808
01:17:32.189 : en:01:17:32.189
01:23:27.502 : en:01:23:27.502
01:26:38.693 : en:01:26:38.693
[Профиль] [ЛС]
Показать сообщения:    

Текущее время: Сегодня 00:16

Часовой пояс: GMT



Вы не можете начинать темы
Вы не можете отвечать на сообщения
Вы не можете редактировать свои сообщения
Вы не можете удалять свои сообщения
Вы не можете голосовать в опросах
Вы не можете прикреплять файлы к сообщениям
Вы не можете скачивать файлы