Мэгги / Maggie (2015) BDRemux 1080p | L, L2, A, L1

 
Автор Сообщение

sergej644 ®

Пол:

Стаж: 4 года 11 месяцев

Сообщений: 6042

Откуда: Soviet Union



Награды: Нет

Торрент-статистика

Создавать темы 26-Июн-2015 23:01

[Цитировать]

Информация о фильме
Название: Мэгги
Оригинальное название: Maggie
Год выхода: 2015
Жанр: драма, триллер, ужасы
Режиссер: Генри Хобсон
В ролях: Арнольд Шварценеггер, Эбигейл Бреслин, Джоэли Ричардсон, Лора Кайюэтт, Эми Брассетт, Денис Уильямсон, Дж.Д. Эвермор, Рэден Грир, Эйден Флауэрс, Тейлор Мерфи и др.
О фильме: История о девочке-подростке, которая оказывается зараженной в результате вспыхнувшей эпидемии и теперь медленно превращается в зомби…

Страна: США, Швейцария / Lionsgate, Grindstone Entertainment Group, Gold Star Films
Продолжительность: 01:35:03
Перевод: Любительский (многоголосый, закадровый) - ViruseProject
Любительский (многоголосый, закадровый) - HamsterStudio
Любительский (двухголосый, закадровый) - UkropStudio & LE-Production
Авторский (одноголосый, закадровый) - Д.Есарев
Любительский (одноголосый, закадровый) - Lord32x
Файл
Качество: BDRip 1080p
Формат: MKV
Видео: MPEG4/AVC, 34.5 Мбит/сек, 1920х1080 (16:9), 23.976 кадра/сек
Аудио 1: AC3, 6 каналов, 384 Кбит/сек | ViruseProject - Русский
Аудио 2: AC3, 6 каналов, 448 Кбит/сек | HamsterStudio - Русский
Аудио 3: AC3, 6 каналов, 448 Кбит/сек | UkropStudio & LE-Production - Украинский
Аудио 4: AC3, 6 каналов, 384 Кбит/сек | Д.Есарев - Русский
Аудио 5: AC3, 6 каналов, 384 Кбит/сек | Lord32x - Русский
Аудио 6: DTS-HD MA, 6 каналов, 3600/1510 Кбит/сек | Английский
Аудио 7: AC3, 2 канала, 192 Кбит/сек | Directors Commentary
Субтитры: Русские, английские (Full, SDH)
Навигация по главам: Есть

Доп. информация:

За перевод и озвучку спасибо:
- ViruseProject
- HamsterStudio
- UkropStudio & LE-Production | HURTOM
[url=http://fastpic.ru/] - Д.Есарев | Переулок переводмана
- Lord32x

MediaInfo:

Общее
Уникальный идентификатор : 232580055052632564844778037750439335892 (0xAEF94A0C3E2581179E96D2F0E6F7D7D4)
Полное имя : Maggie. (2015) BDRemux 1080p.mkv
Формат : Matroska
Версия формата : Version 2
Размер файла : 26,7 Гбайт
Продолжительность : 1 ч. 35 м.
Режим общего битрейта : Переменный
Общий поток : 40,2 Мбит/сек
Название фильма : Maggie. 2015
Дата кодирования : UTC 2015-06-26 11:44:02
Программа кодирования : mkvmerge v5.8.0 ('No Sleep / Pillow') built on Sep 2 2012 15:37:04
Библиотека кодирования : libebml v1.2.3 + libmatroska v1.3.0
Видео
Идентификатор : 1
Формат : AVC
Формат/Информация : Advanced Video Codec
Профиль формата : High@L4.1
Параметр CABAC формата : Да
Параметр ReFrames формата : 4 кадра
Идентификатор кодека : V_MPEG4/ISO/AVC
Продолжительность : 1 ч. 35 м.
Вид битрейта : Переменный
Максимальный битрейт : 37,0 Мбит/сек
Ширина : 1920 пикселей
Высота : 1080 пикселей
Соотношение сторон : 16:9
Режим частоты кадров : Постоянный
Частота кадров : 23,976 кадра/сек
Цветовое пространство : YUV
Субдискретизация насыщенности : 4:2:0
Битовая глубина : 8 бит
Тип развёртки : Прогрессивная
Заголовок : RARBG
Язык : English
Default : Да
Forced : Нет
Аудио #1
Идентификатор : 2
Формат : AC-3
Формат/Информация : Audio Coding 3
Расширение режима : CM (complete main)
Параметр Endianness формата : Big
Идентификатор кодека : A_AC3
Продолжительность : 1 ч. 35 м.
Вид битрейта : Постоянный
Битрейт : 384 Кбит/сек
Каналы : 6 каналов
Расположение каналов : Front: L C R, Side: L R, LFE
Частота : 48,0 КГц
Битовая глубина : 16 бит
Метод сжатия : С потерями
Размер потока : 261 Мбайт (1%)
Заголовок : MVO | AC3 | 5.1 ch | 384 Kbps | ViruseProject
Язык : Russian
Default : Да
Forced : Нет
Аудио #2
Идентификатор : 3
Формат : AC-3
Формат/Информация : Audio Coding 3
Расширение режима : CM (complete main)
Параметр Endianness формата : Big
Идентификатор кодека : A_AC3
Продолжительность : 1 ч. 35 м.
Вид битрейта : Постоянный
Битрейт : 448 Кбит/сек
Каналы : 6 каналов
Расположение каналов : Front: L C R, Side: L R, LFE
Частота : 48,0 КГц
Битовая глубина : 16 бит
Метод сжатия : С потерями
Размер потока : 305 Мбайт (1%)
Заголовок : MVO | AC3 | 5.1 ch | 448 Kbps | HamsterStudio
Язык : Russian
Default : Нет
Forced : Нет
Аудио #3
Идентификатор : 4
Формат : AC-3
Формат/Информация : Audio Coding 3
Расширение режима : CM (complete main)
Параметр Endianness формата : Big
Идентификатор кодека : A_AC3
Продолжительность : 1 ч. 35 м.
Вид битрейта : Постоянный
Битрейт : 448 Кбит/сек
Каналы : 6 каналов
Расположение каналов : Front: L C R, Side: L R, LFE
Частота : 48,0 КГц
Битовая глубина : 16 бит
Метод сжатия : С потерями
Размер потока : 305 Мбайт (1%)
Заголовок : L2 | AC3 | 5.1 ch | 448 Kbps | UkropStudio & LE-Production
Язык : Ukrainian
Default : Нет
Forced : Нет
Аудио #4
Идентификатор : 5
Формат : AC-3
Формат/Информация : Audio Coding 3
Расширение режима : CM (complete main)
Параметр Endianness формата : Big
Идентификатор кодека : A_AC3
Продолжительность : 1 ч. 35 м.
Вид битрейта : Постоянный
Битрейт : 384 Кбит/сек
Каналы : 6 каналов
Расположение каналов : Front: L C R, Side: L R, LFE
Частота : 48,0 КГц
Битовая глубина : 16 бит
Метод сжатия : С потерями
Размер потока : 261 Мбайт (1%)
Заголовок : A | AC3 | 5.1 ch | 384 Kbps | Д. Есарев
Язык : Russian
Default : Нет
Forced : Нет
Аудио #5
Идентификатор : 6
Формат : AC-3
Формат/Информация : Audio Coding 3
Расширение режима : CM (complete main)
Параметр Endianness формата : Big
Идентификатор кодека : A_AC3
Продолжительность : 1 ч. 35 м.
Вид битрейта : Постоянный
Битрейт : 384 Кбит/сек
Каналы : 6 каналов
Расположение каналов : Front: L C R, Side: L R, LFE
Частота : 48,0 КГц
Битовая глубина : 16 бит
Метод сжатия : С потерями
Размер потока : 261 Мбайт (1%)
Заголовок : L1 | AC3 | 5.1 ch | 384 Kbps | Lord32x
Язык : Russian
Default : Нет
Forced : Нет
Аудио #6
Идентификатор : 7
Формат : DTS
Формат/Информация : Digital Theater Systems
Профиль формата : MA / Core
Режим : 16
Параметр Endianness формата : Big
Идентификатор кодека : A_DTS
Продолжительность : 1 ч. 35 м.
Вид битрейта : Переменный
Битрейт : Неизвестно / 1509 Кбит/сек
Каналы : 6 каналов
Расположение каналов : Front: L C R, Side: L R, LFE
Частота : 48,0 КГц
Битовая глубина : 24 бит
Метод сжатия : Без потерь / Lossy
Заголовок : DTS-HD MA| 3600 Kbps | 5.1 ch | Original
Язык : English
Default : Нет
Forced : Нет
Аудио #7
Идентификатор : 8
Формат : AC-3
Формат/Информация : Audio Coding 3
Расширение режима : CM (complete main)
Параметр Endianness формата : Big
Идентификатор кодека : A_AC3
Продолжительность : 1 ч. 35 м.
Вид битрейта : Постоянный
Битрейт : 192 Кбит/сек
Каналы : 2 канала
Расположение каналов : Front: L R
Частота : 48,0 КГц
Битовая глубина : 16 бит
Метод сжатия : С потерями
Размер потока : 131 Мбайт (0%)
Заголовок : AC3 | 192 Kbps | Directors Commentary
Язык : English
Default : Нет
Forced : Нет
Текст #1
Идентификатор : 9
Формат : UTF-8
Идентификатор кодека : S_TEXT/UTF8
Идентификатор кодека/Информация : UTF-8 Plain Text
Заголовок : Full | ViruseProject
Язык : Russian
Default : Нет
Forced : Нет
Текст #2
Идентификатор : 10
Формат : UTF-8
Идентификатор кодека : S_TEXT/UTF8
Идентификатор кодека/Информация : UTF-8 Plain Text
Заголовок : Full
Язык : English
Default : Нет
Forced : Нет
Текст #3
Идентификатор : 11
Формат : UTF-8
Идентификатор кодека : S_TEXT/UTF8
Идентификатор кодека/Информация : UTF-8 Plain Text
Заголовок : SDH
Язык : English
Default : Нет
Forced : Нет
Меню
00:00:00.000 : en:Chapter 01
00:05:52.935 : en:Chapter 02
00:11:26.102 : en:Chapter 03
00:15:55.120 : en:Chapter 04
00:21:30.497 : en:Chapter 05
00:26:50.609 : en:Chapter 06
00:35:09.065 : en:Chapter 07
00:39:17.938 : en:Chapter 08
00:43:35.779 : en:Chapter 09
00:50:51.131 : en:Chapter 10
00:58:38.014 : en:Chapter 11
01:02:09.517 : en:Chapter 12
01:10:28.807 : en:Chapter 13
01:17:32.189 : en:Chapter 14
01:23:27.502 : en:Chapter 15
01:26:38.693 : en:Chapter 16

Скриншоты

[Профиль] [ЛС]
Показать сообщения:    

Текущее время: Сегодня 20:08

Часовой пояс: GMT



Вы не можете начинать темы
Вы не можете отвечать на сообщения
Вы не можете редактировать свои сообщения
Вы не можете удалять свои сообщения
Вы не можете голосовать в опросах
Вы не можете прикреплять файлы к сообщениям
Вы не можете скачивать файлы