Мы из будущего (2008) DVD9

 
Автор Сообщение

BOSS ®

Пол:

Стаж: 4 года 2 месяца

Сообщений: 12658

Откуда: ODESSA



Награды: 22 (Подробнее)

Mega Seeder 1 (Количество: 1) Top Seeder 5 (Количество: 1) Top Keeper 4 (Количество: 1)
Торрент-статистика

Создавать темы 05-Дек-2018 20:36

[Цитировать]

Информация о фильме
Название: Мы из будущего
Год выхода: 2008
Жанр: Фантастика, боевик, приключения, военный, история
Режиссер: Андрей Малюков
В ролях: Екатерина Климова, Данила Козловский, Владимир Яглыч, Дмитрий Волкострелов, Андрей Терентьев, Даниил Страхов, Борис Галкин, Сергей Маховиков
О фильме:
Действие фильма происходит в двух временных пластах: в наши дни и в годы войны, во время тяжелых оборонительных боев лета 1942-года... Главные герои : четверо "черных следопытов", иначе называемые "черные копатели". Они равкапывают места боев, ищут что-нибудь стоящее: медали, ордена, немецкое оружие, документы. Позже следопытам удается отрыть блиндаж, в нем они находят сейф с документами...
Фотографии в найденных солдатских книжках оказываются фотографии самих следопытов, только имена и фамилии - погибших солдат Красной армии. Пытаясь протрезветь, следопыты отправляются купаться в озеро, и... попадают в 1942 год...

Выпущено: Россия, А1-Кино видео
Продолжительность: 01:55:35
Язык: Русский
Субтитры: Отсутствуют
Файл
Формат: DVD Video
Качество: DVD-9
Видео: MPEG2, 720x576 (16/9), 25 fps, ~6000 kbps
Аудио #1: AC3, 48.0 KHz, 384 Kbps, 6 channels
Аудио #2: AC3, 48.0 KHz, 192 Kbps, 2 channels
Аудио #3: DTS, 48.0 KHz, 6 channels

M/I

General
Complete name : C:UsersUserDesktopMy.iz.buduwego.2008.DVD-9VIDEO_TSVTS_06_3.VOB
Format : MPEG-PS
File size : 1 024 MiB
Duration : 21 min 29 s
Overall bit rate mode : Variable
Overall bit rate : 6 662 kb/s
Video
ID : 224 (0xE0)
Format : MPEG Video
Format version : Version 2
Format profile : Main@Main
Format settings : CustomMatrix / BVOP
Format settings, BVOP : Yes
Format settings, Matrix : Custom
Format settings, GOP : Variable
Format settings, picture st : Frame
Duration : 21 min 29 s
Bit rate mode : Variable
Bit rate : 5 199 kb/s
Maximum bit rate : 9 800 kb/s
Width : 720 pixels
Height : 576 pixels
Display aspect ratio : 16:9
Frame rate : 25.000 FPS
Standard : PAL
Color space : YUV
Chroma subsampling : 4:2:0
Bit depth : 8 bits
Scan type : Interlaced
Scan order : Top Field First
Compression mode : Lossy
Bits/(Pixel*Frame) : 0.501
Time code of first frame : 00:36:48:00
Time code source : Group of pictures header
Stream size : 799 MiB (78%)
Audio #1
ID : 189 (0xBD)-128 (0x80)
Format : AC-3
Format/Info : Audio Coding 3
Commercial name : Dolby Digital
Muxing mode : DVD-Video
Duration : 21 min 29 s
Bit rate mode : Constant
Bit rate : 384 kb/s
Channel(s) : 6 channels
Channel layout : L R C LFE Ls Rs
Sampling rate : 48.0 kHz
Frame rate : 31.250 FPS (1536 SPF)
Bit depth : 16 bits
Compression mode : Lossy
Delay relative to video : -384 ms
Stream size : 59.0 MiB (6%)
Service kind : Complete Main
Audio #2
ID : 189 (0xBD)-129 (0x81)
Format : AC-3
Format/Info : Audio Coding 3
Commercial name : Dolby Digital
Muxing mode : DVD-Video
Duration : 21 min 28 s
Bit rate mode : Constant
Bit rate : 192 kb/s
Channel(s) : 2 channels
Channel layout : L R
Sampling rate : 48.0 kHz
Frame rate : 31.250 FPS (1536 SPF)
Bit depth : 16 bits
Compression mode : Lossy
Delay relative to video : -288 ms
Stream size : 29.5 MiB (3%)
Service kind : Complete Main
Audio #3
ID : 189 (0xBD)-138 (0x8A)
Format : DTS
Format/Info : Digital Theater Systems
Muxing mode : DVD-Video
Duration : 21 min 29 s
Bit rate mode : Constant
Bit rate : 755 kb/s
Channel(s) : 6 channels
Channel layout : C L R Ls Rs LFE
Sampling rate : 48.0 kHz
Frame rate : 93.750 FPS (512 SPF)
Bit depth : 24 bits
Compression mode : Lossy
Delay relative to video : -469 ms
Stream size : 116 MiB (11%)
===================================================
Title: My.iz.buduwego.2008.DVD-9
Size: 7.69 Gb ( 8 064 404,00 KBytes ) - DVD-9
Enabled regions: 1, 2, 3, 4, 5, 6, 7, 8
VTS_01 :
Play Length: 00:00:15
Video: PAL 4:3 (720x576) VBR
Audio:
Russian (Dolby AC3, 2 ch)
VTS_02 :
Play Length: 00:02:06
Video: PAL 4:3 (720x576) VBR
Audio:
Russian (Dolby AC3, 2 ch)
VTS_03 :
Play Length: 00:00:02
Video: PAL 4:3 (720x576) VBR
Audio:
Russian (Dolby AC3, 2 ch)
Russian (Dolby AC3, 2 ch)
Russian (Dolby AC3, 2 ch)
VTS_04 :
Play Length: 00:02:18
Video: PAL 4:3 (720x576) VBR
Audio:
Russian (Dolby AC3, 2 ch)
Russian (Dolby AC3, 2 ch)
Russian (Dolby AC3, 2 ch)
VTS_05 :
Play Length: 00:02:37
Video: PAL 16:9 (720x576) VBR, Auto Letterboxed
Audio:
Russian (Dolby AC3, 2 ch)
VTS_06 :
Play Length: 01:55:35
Video: PAL 16:9 (720x576) VBR, Auto Letterboxed
Audio:
Russian (Dolby AC3, 6 ch)
Russian (Dolby AC3, 2 ch)
Russian (DTS, 5 ch)
VTS_07 :
Play Length: 00:27:33
Video: PAL 4:3 (720x576) VBR
Audio:
Russian (Dolby AC3, 2 ch)
VTS_08 :
Play Length: 00:01:42
Video: PAL 4:3 (720x576) VBR
Audio:
Russian (Dolby AC3, 2 ch)
VTS_09 :
Play Length: 00:11:04
Video: PAL 16:9 (720x576) VBR, Auto Letterboxed
Audio:
Russian (Dolby AC3, 2 ch)
VTS_10 :
Play Length: 00:27:04
Video: PAL 4:3 (720x576) VBR
Audio:
Russian (Dolby AC3, 2 ch)

Скриншоты

[Профиль] [ЛС]
Показать сообщения:    

Текущее время: Сегодня 16:14

Часовой пояс: GMT



Вы не можете начинать темы
Вы не можете отвечать на сообщения
Вы не можете редактировать свои сообщения
Вы не можете удалять свои сообщения
Вы не можете голосовать в опросах
Вы не можете прикреплять файлы к сообщениям
Вы не можете скачивать файлы