Мы – женщины (Елена Касавина, Людмила Ткачикова, Сергей Кушнеров) [1988, Киевнаучфильм, мультфильм для взрослых, TeleSynch]

 
Автор Сообщение

TorrentFilm ®

Пол:

Стаж: 2 года

Сообщений: 7741



Награды: Нет

Торрент-статистика

Создавать темы 17-Дек-2014 02:30

[Цитировать]

Мы-женщины
Страна: СССР
Жанр: мультфильм для взрослых
Продолжительность: 00:10:17
Год выпуска: 1988
Режиссёр: Е. Касавина, Л. Ткачикова
Описание: Мультфильм состоит из трёх миниатюр: "Самая красивая", "Сладкая жизнь", "Бревно". Первая миниатюра показывает как женщины себя "украшают", и к чему это приводит. Вторая и третья миниатюра повествует о тяжёлой женской доле.
Доп. информация: Фильм оцифрован с киноплёнки 16-мм из личного архива
Качество: TeleSynch
Формат: mpg
Видео: MPEG, 4:3, 720х576, 25 fps, 3308 kbps
Аудио: Layer 2, 48 кHz, 2 ch, 256 kbps

Подробные технические данные

ОбщееПолное имя :Мы-женщины.mpgФормат : MPEG-PSРазмер файла : 244 МбайтПродолжительность : 10 м.Режим общего битрейта : ПеременныйОбщий поток : 3309 Кбит/сек
ВидеоИдентификатор : 224 (0xE0)Формат : MPEG VideoВерсия формата : Version 2Профиль формата : Main@MainПараметр BVOP формата : ДаПараметр матрицы формата : По умолчаниюПараметр GOP формата : VariableПродолжительность : 10 м.Вид битрейта : ПеременныйБитрейт : 2987 Кбит/секШирина : 720 пикселейВысота : 576 пикселейСоотношение сторон : 5:4Частота кадров : 25,000 кадров/секСтандарт вещания : PALЦветовое пространство : YUVСубдискретизация насыщенности : 4:2:0Битовая глубина : 8 битТип развёртки : ПрогрессивнаяМетод сжатия : С потерямиБит/(Пиксели*Кадры) : 0.288Временной код первого кадра : 00:00:00:00Оригинал временного кода : Group of pictures headerРазмер потока : 220 Мбайт (90%)
АудиоИдентификатор : 192 (0xC0)Формат : MPEG AudioВерсия формата : Version 1Профиль формата : Layer 2Продолжительность : 10 м.Вид битрейта : ПостоянныйБитрейт : 256 Кбит/секКаналы : 2 каналаЧастота : 48,0 КГцМетод сжатия : С потерямиРазмер потока : 18,8 Мбайт (8%)

Скриншоты

, , ,
[Профиль] [ЛС]
Кто просматривает тему:

Показать сообщения:    

Текущее время: Сегодня 04:31

Часовой пояс: GMT



Вы не можете начинать темы
Вы не можете отвечать на сообщения
Вы не можете редактировать свои сообщения
Вы не можете удалять свои сообщения
Вы не можете голосовать в опросах
Вы не можете прикреплять файлы к сообщениям
Вы не можете скачивать файлы