Мышеловка / 4x4 (2019) WEB-DLRip | iTunes

 
Author Message

BOSS ®

Gender:

Longevity: 4 years 11 months

Posts: 14173

Location: ODESSA



: 22 ()

Top Releaser 3 (1) Top Releaser 2 (1) Top Seeder 4 (1)
Торрент-статистика

Post 20-Aug-2019 19:32

[Quote]

Информация о фильме
Название: Мышеловка
Оригинальное название: 4x4
Год выхода: 2019
Жанр: Триллер, криминал
Страна: Аргентина, Испания
Перевод: Дублированный | iTunes
Продолжительность: 01:32:00
Режиссер: Мариано Кон
В ролях: Питер Ланзани, Луис Брандони, Дади Бриева, Ноэлия Кастаньо, Густаво Родригес и др.
О фильме: Для Сиро Бермудеса, промышлявшего воровством, открыть новенький внедорожник, припаркованный на тихой улице, — как два пальца об асфальт. Выломать компьютер, пошарить в бардачке — дело одной минуты. Помочиться на заднее сиденье, чтобы дополнительно отравить жизнь хозяину, — его фирменный стиль. Но вот дальше случилось невероятное: двери заблокировались, и Сиро оказался запертым в бронированной машине с пуленепробиваемыми и наглухо тонированными стеклами. Орать и пытаться вырваться бесполезно — никто не увидит и не услышит. Телефон разряжен. 40-градусная жара. Страх, истерика, отчаяние. А кошмар Сиро только начинался…

Файл
Формат: AVI
Качество: WEB-DLRip
Видео: Xvid 73, 720x304, ~1869 kbps, 24,000 fps
Звук: русский, AC3, 5.1 ch, 48 kHz, 384 kbps | iTunes
Субтитры: нет

MI

Общее
Полное имя : E:Torrent2MyshelovkaWEBDLRip.avi
Формат : AVI
Формат/Информация : Audio Video Interleave
Профиль формата : OpenDML
Размер файла : 1,46 Гбайт
Продолжительность : 1 ч. 31 м.
Общий поток : 2265 Кбит/сек
Программа кодирования : XviD4PSP 6.0 / 53.6.0
Видео
Идентификатор : 0
Формат : MPEG-4 Visual
Профиль формата : Advanced Simple@L5
Настройки формата : BVOP1 / Custom Matrix
Параметр BVOP формата : 1
Параметр QPel формата : Нет
Параметр GMC формата : Без точки перехода
Параметр матрицы формата : Выборочная
Идентификатор кодека : XVID
Идентификатор кодека/Подсказка : XviD
Продолжительность : 1 ч. 31 м.
Битрейт : 1869 Кбит/сек
Ширина : 720 пикселей
Высота : 304 пикселя
Соотношение сторон : 2,35:1
Частота кадров : 24,000 кадра/сек
Цветовое пространство : YUV
Субдискретизация насыщенности : 4:2:0
Битовая глубина : 8 бит
Тип развёртки : Прогрессивная
Метод сжатия : С потерями
Бит/(Пиксели*Кадры) : 0.356
Размер потока : 1,20 Гбайт (82%)
Библиотека кодирования : XviD 73
Аудио
Идентификатор : 1
Формат : AC-3
Формат/Информация : Audio Coding 3
Параметр Endianness формата : Big
Идентификатор кодека : 2000
Продолжительность : 1 ч. 31 м.
Вид битрейта : Постоянный
Битрейт : 384 Кбит/сек
Каналы : 6 каналов
Расположение каналов : Front: L C R, Side: L R, LFE
Частота : 48,0 КГц
Частота кадров : 31,250 кадров/сек (1536 SPF)
Битовая глубина : 16 бит
Метод сжатия : С потерями
Размер потока : 253 Мбайт (17%)
Выравнивание : Соединение по промежуткам
Продолжительность промежутка : 32 мс. (0,77 видеокадр)

Скриншоты

Рип и релиз от:
[Profile] [PM]
Кто просматривает тему:

Forum Topic Author Size
Фильмы 2018 года Сыр в мышеловке / Chijeu in deo teuraep (2018) HDRip | L1 BOSS 1.41 GB
Display posts from previous:    

The time now is: Today 04:59

All times are GMT



You cannot post new topics in this forum
You cannot reply to topics in this forum
You cannot edit your posts in this forum
You cannot delete your posts in this forum
You cannot vote in polls in this forum
You cannot attach files in this forum
You cannot download files in this forum