Мушкетеры / THE_MUSKETEERS (S01-S02) WEB-DLRip,WEB-DLRip,HDTVRip-AVC (1080-720p) [NewStudio_TV]

 
Автор Сообщение

Враг Нароода ®

Стаж: 1 год 8 месяцев

Сообщений: 112



Награды: 2 (Подробнее)

За внесенный вклад в развитие сайта (Количество: 1) Mega Seeder 1 (Количество: 1)
Торрент-статистика

Создавать темы 31-Мар-2015 11:19

[Цитировать]

--Мушкетеры / The Musketeers Сезон 1-2, Серии 1-20 из 20-- --Год выпуска: 2014-2015
Страна: Великобритания, BBC One, BBC America, BBC Drama Productions
Жанр: Драма, приключения
Продолжительность: 00:59:00
Сезон: 1-2
Серия: 1-20
Количество серий в сезоне: 20
Перевод: Александра Цернант
Озвучка:Профессиональная многоголосая закадровая(NewStudio)(Александр Дасевич, Константин Погодаев, Анна Тух)
Субтитры: Русские,Английские--Сайт сериала:
--Режиссер: Тоби Хэйнс, Фэррен Блэкберн, Ричард Кларк--В ролях: Люк Паскуалино, Том Бёрк, Ховард Чарльз, Сантьяго Кабрера, Александра Доулинг, Питер Капальди, Райан Гейдж, Мэйми МакКой, Хьюго Спир, Шарлотта Хоуп, Джулиан Бастида, Эмили Бичем, Филип Броди, Кевин Кларк, Джей Джей Филд, Тамла Кари, Эбигейл Райс, Джеймс Кэллис, Шон Сернов, Фиона Глэскотт, Джим Хай, Энтон Лессер, Саймон Микок, Стюарт Мур, Анна Скеллерн, Эшли Уолтерс, Власта Сваткова-- Мушкетеры собираются на улицах Парижа в семнадцатом веке, где закон и порядок являются больше идеей, чем реальностью. Личные телохранители короля Людовика XIII, Атос, Арамис и Портос решительно стоят за социальную справедливость, за честь, за доблесть, так же за любовь — и за острые ощущения.-- --

ТЕХ. ДАННЫЕ:

1Сезон
Качество : WEB-DLRip-AVC 1080p
Формат: MPEG-4
Видео кодек: H264
Видео: 4997Кбит/сек,1920х1080(16.9),в 23.970кадр/сек,AVC(Baseline@L4.1)(1Ref Frames)
Аудио кодек: AAC
Аудио Russian Dolby Digital 5.1:384Кбит/сек,48.0КГц,6каналов,AAC,(Version4)(LC)
2Сезон
Качество : HDTVRip-AVC 720p
Формат: MPEG-4
Видео кодек: H264
Видео: 5220Кбит/сек,1280х720(16.9),в 25.000кадр/сек,AVC(Baseline@L3.1)(1Ref Frames)
Аудио кодек: AAC
Аудио Russian Dolby Digital 5.1: 300Кбит/сек,48.0КГц,6каналов,AAC,(Version4)(LC)
-- --

Доп. информация:

Звуковая дорожка сделана путем наложения чистого голоса озвучивателей на центральный канал оригинальной дорожки. Качество идентично звуковой дорожке.
--

Список эпизодов сезонов

1Сезон
01. Друзья и Враги / Friends and Enemies
02.Ловкость рук / Sleight of Hand
03 Товар / Commodities
04 Добрый солдат / The Good Soldier
05 Возвращение домой / The Homecoming
06 Изгнанники / The Exiles
07 Бунтарка / A Rebellious Woman
08 Турнир / The Challenge
09 Рыцарь и королева / Knight Takes Queen
10 Мушкетёров непросто убить / Musketeers Don't Die Easily

2Сезон
01 Держи друзей близко... / Keep Your Friends Close
02 Обычный человек / An Ordinary Man
03 Благородный изменник / The Good Traitor
04 Эмили / Emilie
05 Возвращение / The Return
06 Сквозь тусклое стекло / Through a Glass Darkly...
07 Свадебный переполох / A Marriage of Inconvenience
08 Щедрый отец / The Prodigal Father
09 Обвинённые / The Accused
10 Суд и приговор / Trial and Punishment
--

MediaInfo 1Сезон

General
Полное имя : D:\И С Т О Р И Ч Е С К И Е\The_Musketeers_S01_2014_RUS[NewStudio_TV]_DD5.1_x264_Nikolai.Baranov_WEB-DLRip-AVC_(1080p)\The_Musketeers_S01Е01_2014_RUS[NewStudio_TV]_DD5.1_x264_Nikolai.Baranov_WEB-DLRip-AVC_(1080p).mp4
Формат : MPEG-4
Профиль формата : Base Media / Version 2
Идентификатор кодека : mp42
Размер файла : 2.22 GiB
Продолжительность : 59mn 1s
Общий поток : 5 383 Kbps
Дата кодирования : UTC 2014-01-28 16:14:21
Дата пометки : UTC 2014-01-28 16:14:21
Библиотека кодирования : AVS
Video
Идентификатор : 1
Формат : AVC
Формат/Информация : Advanced Video Codec
Профиль формата : Baseline@L4.1
Параметр CABAC формата : No
Параметр ReFrames формата : 1 frame
Идентификатор кодека : avc1
Идентификатор кодека/Информация : Advanced Video Coding
Продолжительность : 59mn 1s
Битрейт : 4 997 Kbps
Ширина : 1 920 pixels
Высота : 1 080 pixels
Соотношение сторон : 16:9
Режим частоты кадров : Constant
Частота кадров : 25.000 fps
Цветовое пространство : YUV
Субдискретизация насыщенности : 4:2:0
Битовая глубина : 8 bits
Тип развёртки : Progressive
Бит/(Пиксели*Кадры) : 0.096
Размер потока : 2.06 GiB (93%)
Язык : English
Дата кодирования : UTC 2014-01-28 16:14:21
Дата пометки : UTC 2014-01-28 16:14:21
Color primaries : BT.709
Transfer characteristics : BT.709
Matrix coefficients : BT.709
Audio
Идентификатор : 2
Формат : AAC
Формат/Информация : Advanced Audio Codec
Профиль формата : LC
Идентификатор кодека : 40
Продолжительность : 59mn 1s
Вид битрейта : Constant
Битрейт : 384 Kbps
Каналы : 6 channels
Расположение каналов : Front: L C R, Side: L R, LFE
Частота : 48.0 KHz
Метод сжатия : Lossy
Размер потока : 161 MiB (7%)
Язык : English
Дата кодирования : UTC 2014-01-28 16:14:21
Дата пометки : UTC 2014-01-28 16:14:21
mdhd_Duration : 3541248
--

MediaInfo 2Сезон

General
Полное имя : D:\С Е Р И А Л Ы\МУШКЁТЁРЫ\THE_MUSKETEERS_S01_-_S02_RUS[NewStudio_TV]_DD5.1_x264_Nikolai.Baranov_WEB-DLRip_WEB-DLRip_HDTVRip-AVC_(1080_720p)\S02\The_Musketeers_S02Е01_2015_RUS[NewStudio_TV]_DD5.1_x264_Nikolai.Baranov_HDTVRip-AVC_(720p).mp4
Формат : MPEG-4
Профиль формата : Base Media
Идентификатор кодека : isom
Размер файла : 2.25 GiB
Продолжительность : 58mn 10s
Режим общего битрейта : Variable
Общий поток : 5 524 Kbps
Дата кодирования : UTC 2015-01-14 18:26:14
Дата пометки : UTC 2015-01-14 18:26:14
Программа кодирования : Lavf51.12.1
Video
Идентификатор : 1
Формат : AVC
Формат/Информация : Advanced Video Codec
Профиль формата : Baseline@L3.1
Параметр CABAC формата : No
Параметр ReFrames формата : 1 frame
Параметр GOP формата : M=1, N=12
Идентификатор кодека : avc1
Идентификатор кодека/Информация : Advanced Video Coding
Продолжительность : 58mn 10s
Вид битрейта : Variable
Битрейт : 5 220 Kbps
Максимальный битрейт : 7 500 Kbps
Ширина : 1 280 pixels
Высота : 720 pixels
Соотношение сторон : 16:9
Режим частоты кадров : Constant
Частота кадров : 25.000 fps
Частота кадров в оригинале : 24.000 fps
Цветовое пространство : YUV
Субдискретизация насыщенности : 4:2:0
Битовая глубина : 8 bits
Тип развёртки : Progressive
Бит/(Пиксели*Кадры) : 0.227
Размер потока : 2.12 GiB (94%)
Язык : English
Дата кодирования : UTC 2015-01-14 18:26:14
Дата пометки : UTC 2015-01-14 18:26:14
Audio
Идентификатор : 2
Формат : AAC
Формат/Информация : Advanced Audio Codec
Профиль формата : LC
Идентификатор кодека : 40
Продолжительность : 58mn 10s
Вид битрейта : Variable
Битрейт : 300 Kbps
Каналы : 6 channels
Расположение каналов : Front: L C R, Side: L R, LFE
Частота : 48.0 KHz
Метод сжатия : Lossy
Размер потока : 125 MiB (5%)
Язык : Russian
Дата кодирования : UTC 2015-01-14 18:26:14
Дата пометки : UTC 2015-01-14 18:26:14
--

Скриншоты 1Сезон

--

Скриншоты 2Сезон

-- 1Сезон-- 2Сезон--

Как закачать отдельный файл

1. Открыть торрент
2. Снять галки с тех файлов торрента, которые мы не хотим закачивать. Оставляем только на нужных нам файлах (файле).
3. Нажать О.К.
В клиенте utorrent
Инструкция
1) Открыть торрент

2) Снять галки с тех файлов торрента, которые мы не хотим закачивать:
* либо вручную, снимая с каждого файла галку( скрин №1)
* либо, нажав кнопку "Снять метки (Select None)", сняв сразу со всех файлов(скрин №2)
№1

№2

Оставляем только на нужных нам файлах (файле).

3)Нажать О.К
-- -- --Внимание!!! 31.03. 2015. РАЗДАЧА ОБНОВЛЕНА.ФИНАЛ СЕЗОНА. ОБНОВИТЕ ТОРЕНТ ФАЙЛ.ПРИЯТНОГО ПРОСМОТРА . --Релиз от: Nikolai.Baranov 20 -- -- -- --
[Профиль] [ЛС]
Показать сообщения:    

Текущее время: Сегодня 11:55

Часовой пояс: GMT



Вы не можете начинать темы
Вы не можете отвечать на сообщения
Вы не можете редактировать свои сообщения
Вы не можете удалять свои сообщения
Вы не можете голосовать в опросах
Вы не можете прикреплять файлы к сообщениям
Вы не можете скачивать файлы