Мученицы / Martyrs (2015) BDRip 720p | iTunes

 
Автор Сообщение

достали все ®

Пол:

Стаж: 1 год 8 месяцев

Сообщений: 6611



Награды: 12 (Подробнее)

Top Releaser 2 (Количество: 1) Top Releaser 4 (Количество: 1) За внесенный вклад в развитие сайта (Количество: 1)
Торрент-статистика

Создавать темы 07-Мар-2016 22:56

[Цитировать]

Информация о фильме
Название: Мученицы
Оригинальное название: Martyrs
Год выхода: 2015
Жанр: ужасы, триллер, драма
Режиссер: Кевин Гетц, Майкл Гетц
В ролях: Тройэн Эвери Беллисарио, Кэйтлин Кармайкл, Кейт Бёртон, Бэйли Ноубл, Тоби Хасс, Лекси ДиБенедетто, Тейлор Джон Смит, Диана Хоппер, Блейк Роббинс, Питер Майкл Гец
О фильме: Спустя год после своего исчезновения, десятилетняя Люси неожиданно находится. Девочка так напугана, что не может ни с кем разговаривать и рассказать, что же с ней произошло. Проходит 10 лет. Люси все еще продолжают посещать кошмары и она не оставляет попыток выяснить, что с ней тогда случилось. И когда она, наконец, вместе со своей подругой, приближается вплотную к разгадке тайны, то попадает в новую ловушку. Теперь, если им не удастся найти выход, им грозит страшная и мучительная смерть.

Выпущено: США / Blumhouse Productions, Safran Company, The; Temple Hill Entertainment
Продолжительность: 01:26:25
Озвучивание: Дублированное [iTunes]
Файл
Формат: MKV
Качество: BDRip 720p
Видео: MPEG-4 AVC, 4787 kb/s, 1280x536
Аудио: Russian: AC3, 384 kb/s (6 ch) / English: AC3, 640 kb/s (6 ch)

MI

Format : Matroska
Format version : Version 2
File size : 3.51 GiB
Duration : 1h 26mn
Overall bit rate : 5 813 Kbps
Encoded date : UTC 2016-03-07 19:47:22
Writing application : mkvmerge v7.8.0 ('River Man') 32bit built on Apr 3 2015 12:11:22
Writing library : libebml v1.3.1 + libmatroska v1.4.2
Video
ID : 1
Format : AVC
Format/Info : Advanced Video Codec
Format profile : High@L4.1
Format settings, CABAC : Yes
Format settings, ReFrames : 5 frames
Codec ID : V_MPEG4/ISO/AVC
Duration : 1h 26mn
Bit rate : 4 787 Kbps
Width : 1 280 pixels
Height : 536 pixels
Display aspect ratio : 2.40:1
Frame rate mode : Constant
Frame rate : 23.976 fps
Color space : YUV
Chroma subsampling : 4:2:0
Bit depth : 8 bits
Scan type : Progressive
Bits/(Pixel*Frame) : 0.291
Stream size : 2.82 GiB (80%)
Writing library : x264 core 148 r2638 7599210
Encoding settings : cabac=1 / ref=5 / deblock=1:0:0 / analyse=0x3:0x133 / me=umh / subme=7 / psy=1 / psy_rd=1.00:0.00 / mixed_ref=1 / me_range=16 / chroma_me=1 / trellis=1 / 8x8dct=1 / cqm=0 / deadzone=21,11 / fast_pskip=0 / chroma_qp_offset=-2 / threads=17 / lookahead_threads=2 / sliced_threads=0 / nr=0 / decimate=1 / interlaced=0 / bluray_compat=0 / constrained_intra=0 / bframes=3 / b_pyramid=2 / b_adapt=1 / b_bias=0 / direct=1 / weightb=1 / open_gop=0 / weightp=2 / keyint=250 / keyint_min=23 / scenecut=40 / intra_refresh=0 / rc_lookahead=40 / rc=2pass / mbtree=1 / bitrate=4787 / ratetol=1.0 / qcomp=0.60 / qpmin=0 / qpmax=69 / qpstep=4 / cplxblur=20.0 / qblur=0.5 / ip_ratio=1.40 / aq=1:1.00
Language : English
Default : Yes
Forced : No
Audio #1
ID : 2
Format : AC-3
Format/Info : Audio Coding 3
Mode extension : CM (complete main)
Format settings, Endianness : Big
Codec ID : A_AC3
Duration : 1h 26mn
Bit rate mode : Constant
Bit rate : 384 Kbps
Channel(s) : 6 channels
Channel positions : Front: L C R, Side: L R, LFE
Sampling rate : 48.0 KHz
Bit depth : 16 bits
Compression mode : Lossy
Stream size : 237 MiB (7%)
Language : Russian
Default : Yes
Forced : No
Audio #2
ID : 3
Format : AC-3
Format/Info : Audio Coding 3
Mode extension : CM (complete main)
Format settings, Endianness : Big
Codec ID : A_AC3
Duration : 1h 26mn
Bit rate mode : Constant
Bit rate : 640 Kbps
Channel(s) : 6 channels
Channel positions : Front: L C R, Side: L R, LFE
Sampling rate : 48.0 KHz
Bit depth : 16 bits
Compression mode : Lossy
Stream size : 396 MiB (11%)
Language : English
Default : No
Forced : No
Menu
00:00:00.000 : en:00:00:00.000
00:03:14.194 : en:00:03:14.194
00:11:23.683 : en:00:11:23.683
00:18:41.954 : en:00:18:41.954
00:27:02.454 : en:00:27:02.454
00:37:36.254 : en:00:37:36.254
00:47:29.346 : en:00:47:29.346
00:54:42.613 : en:00:54:42.613
00:58:38.348 : en:00:58:38.348
01:04:58.561 : en:01:04:58.561
01:10:53.583 : en:01:10:53.583
01:21:11.366 : en:01:21:11.366

Скриншоты




[Профиль] [ЛС]
Показать сообщения:    

Текущее время: Сегодня 13:01

Часовой пояс: GMT



Вы не можете начинать темы
Вы не можете отвечать на сообщения
Вы не можете редактировать свои сообщения
Вы не можете удалять свои сообщения
Вы не можете голосовать в опросах
Вы не можете прикреплять файлы к сообщениям
Вы не можете скачивать файлы