Мутант / Dol-yeon-byeon-i (2015) BDRemux 1080p | L2

 
Автор Сообщение

достали все ®

Пол:

Стаж: 1 год 8 месяцев

Сообщений: 6600



Награды: 12 (Подробнее)

Top Releaser 2 (Количество: 1) Mega Seeder 4 (Количество: 1) Mega Seeder 1 (Количество: 1)
Торрент-статистика

Создавать темы 19-Авг-2016 09:17

[Цитировать]

Мутант / Коллективное изобретение / Collective Invention / Dol-yeon-byeon-i
Страна: Южная Корея
Производство: WooSan Film
Год выпуска: 2015
Жанр: комедия, драма
Продолжительность: 01:33:45
Режиссер: Квон О-гван
Автор сценария: Квон О-гван
В ролях: Ли Гван-су, Ли Чхон-хи, Пак По-ён, Чан Гван, Ли Бён-джун, Ким Хи-вон, Чон Ин-ги, Мён Ге-нам, Чхве Джи-хо, О Чхан-гён
Описание: Безработный парень Пак Ку отчаянно пытается заработать денег и участвует в клинических испытаниях нового препарата для фармацевтической компании. В результате неизвестного побочного эффекта он медленно превращается в рыбу. Причудливая ситуация становится горячей новостью, и рыба-человек Ку оказывается в центре внимания и становится суперзвездой...

Перевод: Любительский (двухголосый, закадровый) | den904 & DeadSno
Субтитры: русские, английские-Качество: BDRemux 1080p
Формат: MKV
Видео кодек: AVC
Аудио кодек: DTS
Видео: 1920x1080 (16:9), 24.000 fps, MPEG-4 AVC ~24.5 Mbps
Аудио №1: 48.0 kHz, Digital Theater Systems МА, 3/2 (L,C,R,l,r) + LFE ch, ~1870 kbps avg | RUS
Аудио №2: 48.0 kHz, Digital Theater Systems МА, 3/2 (L,C,R,l,r) + LFE ch, ~3840 kbps avg | KOR
Формат субтитров: UTF-8 Plain Text
Дата премьеры (мир): 15 сентября 2015ВНИМАНИЕ! Присутствует
ненормативная лексика
Релиз от:

Media Info

General
Уникальный идентификатор : 249799982725919426092550333333128448354 (0xBBEDBA07F531C344BF6E51F64A5D8962)
Полное имя : Collective.Invention.2015.BDRemux.1080p_by_vedigo.mkv
Формат : Matroska
Версия формата : Version 4 / Version 2
Размер файла : 19,8 Гбайт
Продолжительность : 1 ч. 33 м.
Режим общего битрейта : Переменный
Общий поток : 30,2 Мбит/сек
Название фильма : Collective.Invention.2015.BDRemux.1080p_by_vedigo
Дата кодирования : UTC 2016-08-18 07:37:45
Программа кодирования : mkvmerge v9.3.1 ('Mask Machine') 64bit
Библиотека кодирования : libebml v1.3.4 + libmatroska v1.4.5
Видео
Идентификатор : 1
Формат : AVC
Формат/Информация : Advanced Video Codec
Профиль формата : High@L4.1
Параметр CABAC формата : Да
Параметр ReFrames формата : 4 кадра
Параметр GOP формата : M=3, N=24
Идентификатор кодека : V_MPEG4/ISO/AVC
Продолжительность : 1 ч. 33 м.
Вид битрейта : Переменный
Битрейт : 24,5 Мбит/сек
Максимальный битрейт : 34,0 Мбит/сек
Ширина : 1920 пикселей
Высота : 1080 пикселей
Соотношение сторон : 16:9
Режим частоты кадров : Постоянный
Частота кадров : 24,000 кадра/сек
Стандарт вещания : NTSC
Цветовое пространство : YUV
Субдискретизация насыщенности : 4:2:0
Битовая глубина : 8 бит
Тип развёртки : Прогрессивная
Бит/(Пиксели*Кадры) : 0.492
Размер потока : 16,0 Гбайт (81%)
Заголовок : Collective.Invention.2015.BDRemux.1080p_by_vedigo
Default : Да
Forced : Нет
Цветовой диапазон : Limited
Основные цвета : BT.709
Характеристики трансфера : BT.709
Коэффициенты матрицы : BT.709
Аудио #1
Идентификатор : 2
Формат : DTS
Формат/Информация : Digital Theater Systems
Профиль формата : MA / Core
Режим : 16
Параметр Endianness формата : Big
Идентификатор кодека : A_DTS
Продолжительность : 1 ч. 33 м.
Вид битрейта : Переменный / Постоянный
Битрейт : 1870 Кбит/сек / 1509 Кбит/сек
Каналы : 6 каналов
Расположение каналов : Front: L C R, Side: L R, LFE
Частота : 48,0 КГц
Частота кадров : 93,750 кадра/сек (512 spf)
Битовая глубина : 16 бит
Метод сжатия : Без потерь / Lossy
Размер потока : 1,22 Гбайт (6%)
Заголовок : DVO @ DeadSno & den904
Язык : Russian
Default : Да
Forced : Нет
Аудио #2
Идентификатор : 3
Формат : DTS
Формат/Информация : Digital Theater Systems
Профиль формата : MA / Core
Режим : 16
Параметр Endianness формата : Big
Идентификатор кодека : A_DTS
Продолжительность : 1 ч. 33 м.
Вид битрейта : Переменный / Постоянный
Битрейт : 3840 Кбит/сек / 1509 Кбит/сек
Каналы : 6 каналов
Расположение каналов : Front: L C R, Side: L R, LFE
Частота : 96,0 КГц / 48,0 КГц
Частота кадров : 93,750 кадра/сек (512 spf)
Битовая глубина : 24 бит
Метод сжатия : Без потерь / Lossy
Размер потока : 2,50 Гбайт (13%)
Заголовок : Original
Язык : Korean
Default : Нет
Forced : Нет
Текст #1
Идентификатор : 4
Формат : UTF-8
Идентификатор кодека : S_TEXT/UTF8
Идентификатор кодека/Информация : UTF-8 Plain Text
Продолжительность : 1 ч. 28 м.
Битрейт : 81 бит/сек
Count of elements : 1011
Размер потока : 52,9 Кбайт (0%)
Заголовок : Subtitle rus
Язык : Russian
Default : Нет
Forced : Нет
Текст #2
Идентификатор : 5
Формат : UTF-8
Идентификатор кодека : S_TEXT/UTF8
Идентификатор кодека/Информация : UTF-8 Plain Text
Продолжительность : 1 ч. 29 м.
Битрейт : 45 бит/сек
Count of elements : 1182
Размер потока : 30,0 Кбайт (0%)
Заголовок : Subtitle eng
Язык : English
Default : Нет
Forced : Нет
Меню
00:00:00.000 : :Глава 01
00:08:49.167 : :Глава 01
00:14:16.583 : :Глава 02
00:22:44.292 : :Глава 04
00:33:23.750 : :Глава 05
00:39:47.333 : :Глава 06
00:47:50.458 : :Глава 07
00:56:47.625 : :Глава 08
01:03:15.917 : :Глава 09
01:12:52.167 : :Глава 10
01:19:53.625 : :Глава 11
01:27:13.000 : :Глава 12

Скриншоты

[Профиль] [ЛС]
Показать сообщения:    

Текущее время: Сегодня 05:18

Часовой пояс: GMT



Вы не можете начинать темы
Вы не можете отвечать на сообщения
Вы не можете редактировать свои сообщения
Вы не можете удалять свои сообщения
Вы не можете голосовать в опросах
Вы не можете прикреплять файлы к сообщениям
Вы не можете скачивать файлы