Мутант / Dol-yeon-byeon-i (2015) BDRip 720p | L2

 
Автор Сообщение

достали все ®

Пол:

Стаж: 1 год 8 месяцев

Сообщений: 6600



Награды: 12 (Подробнее)

Top Releaser 2 (Количество: 1) Mega Seeder 4 (Количество: 1) Top Releaser 4 (Количество: 1)
Торрент-статистика

Создавать темы 30-Июл-2016 21:50

[Цитировать]

Информация о фильме
Название: Мутант
Оригинальное название: Dol-yeon-byeon-i
Год выхода: 2012
Жанр: Комедия, драма
Режиссер: О Кван Квон
В ролях: Кван Су Ли, Бо Ён Пак, Чхон Хи Ли, Гван Чан, Бён Чжун Ли, Хи Вон Ким, Ин Ги Чон, Гэ Нам Мён, Чжи Хо Чхве, Чжи Хун Ли, Сон Чхан Сон, Бон Сон Кан
О фильме:
Вся Корея потрясена шокирующим открытием. Молодой мужчина в результате испытаний нового препарата превратился в человека-рыбу. Общество страны разделилось на две части: для одних он герой и друг, для других – враг, предатель и дьявол. Кто же он? Человек или рыба? Мутант по своей натуре или мутант лишь в сознании общества? История человека-рыбы начинается.

Производство: Южная Корея, WooSan Film
Продолжительность: 01:42:36
Перевод: Любительский (двухголосый, закадровый) [den904 & DeadSno] (перевод: Сергей Скворцов)
Файл
Качество: BDRip 720p
Кодек: x264
Видео: 1280x536, 24.000 fps, ~6036 kbps avg, 0.367 bit/pixel
Звук: 48 kHz, AC3, 2 ch, 192 kbps

MediaInfo

General
Complete name : Dolyeonbyeoni.2015.BDRip.720p.x264.mkv
Format : Matroska
Format version : Version 4 / Version 2
File size : 4.07 GiB
Duration : 1h 33mn
Overall bit rate : 6 223 Kbps
Encoded date : UTC 2016-07-23 19:51:13
Writing application : mkvmerge v6.2.0 ('Promised Land') built on Apr 28 2013 12:22:01
Writing library : libebml v1.3.0 + libmatroska v1.4.0
Video
ID : 1
Format : AVC
Format/Info : Advanced Video Codec
Format profile : High@L4.1
Format settings, CABAC : Yes
Format settings, ReFrames : 5 frames
Codec ID : V_MPEG4/ISO/AVC
Duration : 1h 33mn
Bit rate : 6 036 Kbps
Width : 1 280 pixels
Height : 536 pixels
Display aspect ratio : 2.40:1
Frame rate : 24.000 fps
Color space : YUV
Chroma subsampling : 4:2:0
Bit depth : 8 bits
Scan type : Progressive
Bits/(Pixel*Frame) : 0.367
Stream size : 3.87 GiB (95%)
Writing library : x264 core 148 r2692 64f4e24
Encoding settings : cabac=1 / ref=5 / deblock=1:0:0 / analyse=0x3:0x133 / me=umh / subme=7 / psy=1 / psy_rd=1.00:0.00 / mixed_ref=1 / me_range=16 / chroma_me=1 / trellis=1 / 8x8dct=1 / cqm=0 / deadzone=21,11 / fast_pskip=0 / chroma_qp_offset=-2 / threads=17 / lookahead_threads=2 / sliced_threads=0 / nr=0 / decimate=1 / interlaced=0 / bluray_compat=0 / constrained_intra=0 / bframes=3 / b_pyramid=2 / b_adapt=1 / b_bias=0 / direct=1 / weightb=1 / open_gop=0 / weightp=2 / keyint=250 / keyint_min=23 / scenecut=40 / intra_refresh=0 / rc_lookahead=40 / rc=2pass / mbtree=1 / bitrate=6036 / ratetol=1.0 / qcomp=0.60 / qpmin=0 / qpmax=69 / qpstep=4 / cplxblur=20.0 / qblur=0.5 / ip_ratio=1.40 / aq=1:1.00
Language : Korean
Audio
ID : 2
Format : AC-3
Format/Info : Audio Coding 3
Mode extension : CM (complete main)
Codec ID : A_AC3
Duration : 1h 33mn
Bit rate mode : Constant
Bit rate : 192 Kbps
Channel(s) : 2 channels
Channel positions : Front: L R
Sampling rate : 48.0 KHz
Bit depth : 16 bits
Compression mode : Lossy
Stream size : 129 MiB (3%)

Скриншоты

[Профиль] [ЛС]
Показать сообщения:    

Текущее время: Сегодня 23:32

Часовой пояс: GMT



Вы не можете начинать темы
Вы не можете отвечать на сообщения
Вы не можете редактировать свои сообщения
Вы не можете удалять свои сообщения
Вы не можете голосовать в опросах
Вы не можете прикреплять файлы к сообщениям
Вы не можете скачивать файлы