Мустанг / Mustang (2015) HDRip | iTunes

 
Автор Сообщение

BOSS ®

Пол:

Стаж: 2 года 1 месяц

Сообщений: 3712

Откуда: ODESSA



Награды: 20 (Подробнее)

Mega Releaser 2 (Количество: 1) Top Keeper 2 (Количество: 1) Top Releaser 3 (Количество: 1)
Торрент-статистика

Создавать темы 03-Май-2016 04:49

[Цитировать]

Информация о фильме
Название: Мустанг
Оригинальное название: Mustang
Год выхода: 2015
Жанр: драма
Режиссер: Дениз Гамзе Эргювен / Deniz Gamze Ergven
В ролях: Гюнеш Шенсой, Дога Зейнеп Догуслу, Элит Ишчан, Тугба Сунгуроглу, Илаида Акдоган, Нихал Г. Колдаш, Айберк Пекджан, Бахар Керимоглу, Бурак Йийит, Эрол Афсин
О фильме:
В деревне на севере Турции пятеро сестер-подростков возвращаются из школы, беззаботно резвясь с мальчишками. Консервативные воспитатели считают эти невинные игры непозволительными и всерьез берутся за воспитание девушек. Жизнь юных сестер круто меняется: дом становится тюрьмой, школу заменяют уроки домашнего хозяйства, начинаются приготовления к принудительным свадьбам. Но жизнелюбивые девушки не собираются мириться с традициями, ограничивающими их свободу.

Страна: Турция, Франция, Катар, Германия
Студия: CG Cinma, Vistamar Filmproduktion, Uhlandfilm
Продолжительность: 01:37:03
Перевод: Профессиональный (многоголосый закадровый) | iTunes
Файл
Формат: AVI
Качество: HDRip
Видео: XviD, 688x288, 24 fps, 933 kbps
Звук: MP3, 2 ch, ~128 Kbps

Скриншоты

MediaInfo:

Общее
Полное имя : Mustang.2015.HDRip.745MB.MegaPeer.avi
Формат : AVI
Формат/Информация : Audio Video Interleave
Размер файла : 743 Мбайт
Продолжительность : 1 ч. 37 м.
Общий поток : 1071 Кбит/сек
Программа кодирования : VirtualDubMod 1.5.10.3 | www.virtualdub-fr.org || (build 2550/release)
Библиотека кодирования : VirtualDubMod build 2550/release
Видео
Идентификатор : 0
Формат : MPEG-4 Visual
Профиль формата : Advanced Simple@L5
Параметр BVOP формата : 1
Параметр QPel формата : Нет
Параметр GMC формата : Без точки перехода
Параметр матрицы формата : Выборочная
Идентификатор кодека : XVID
Идентификатор кодека/Подсказка : XviD
Продолжительность : 1 ч. 37 м.
Битрейт : 933 Кбит/сек
Ширина : 688 пикселей
Высота : 288 пикселей
Соотношение сторон : 2,40:1
Частота кадров : 24,000 кадра/сек
Цветовое пространство : YUV
Субдискретизация насыщенности : 4:2:0
Битовая глубина : 8 бит
Тип развёртки : Прогрессивная
Метод сжатия : С потерями
Бит/(Пиксели*Кадры) : 0.196
Размер потока : 648 Мбайт (87%)
Библиотека кодирования : XviD 73
Аудио
Идентификатор : 1
Формат : MPEG Audio
Версия формата : Version 1
Профиль формата : Layer 3
Идентификатор кодека : 55
Идентификатор кодека/Подсказка : MP3
Продолжительность : 1 ч. 37 м.
Вид битрейта : Постоянный
Битрейт : 128 Кбит/сек
Каналы : 2 канала
Частота : 48,0 КГц
Метод сжатия : С потерями
Размер потока : 88,8 Мбайт (12%)
Выравнивание : Соединение по промежуткам
Продолжительность промежутка : 42 мс. (1,00 видеокадр)
Время предзагрузки промежутка : 504 мс.
Библиотека кодирования : LAME3.99r
Настройки программы : -m s -V 4 -q 2 -lowpass 17 -b 128
[Профиль] [ЛС]
Показать сообщения:    

Текущее время: Сегодня 00:33

Часовой пояс: GMT



Вы не можете начинать темы
Вы не можете отвечать на сообщения
Вы не можете редактировать свои сообщения
Вы не можете удалять свои сообщения
Вы не можете голосовать в опросах
Вы не можете прикреплять файлы к сообщениям
Вы не можете скачивать файлы