Мустанг / Mustang (2015) BDRemux | P

 
Автор Сообщение

достали все ®

Пол:

Стаж: 1 год 8 месяцев

Сообщений: 6515



Награды: 12 (Подробнее)

Top Releaser 4 (Количество: 1) Top Releaser 3 (Количество: 1) Mega Seeder 4 (Количество: 1)
Торрент-статистика

Создавать темы 03-Май-2016 03:30

[Цитировать]

Информация о фильме
Название: Мустанг
Оригинальное название: Mustang
Год выхода: 2015
Жанр: драма
Режиссер: Дениз Гамзе Эргювен / Deniz Gamze Ergüven
В ролях: Гюнеш Шенсой, Дога Зейнеп Догуслу, Элит Ишчан, Тугба Сунгуроглу, Илаида Акдоган, Нихал Г. Колдаш, Айберк Пекджан, Бахар Керимоглу, Бурак Йийит, Эрол Афсин
О фильме:
В деревне на севере Турции пятеро сестер-подростков возвращаются из школы, беззаботно резвясь с мальчишками. Консервативные воспитатели считают эти невинные игры непозволительными и всерьез берутся за воспитание девушек. Жизнь юных сестер круто меняется: дом становится тюрьмой, школу заменяют уроки домашнего хозяйства, начинаются приготовления к принудительным свадьбам. Но жизнелюбивые девушки не собираются мириться с традициями, ограничивающими их свободу.

Страна: Турция, Франция, Катар, Германия
Студия: CG Cinéma, Vistamar Filmproduktion, Uhlandfilm
Продолжительность: 01:37:02.656
Перевод: Профессиональный (многоголосый закадровый) iTunes
Файл
Кодек: h.264
Качество: BD Remux Источник BD Cohen Media Group
Видео: 1920x1080 (16:9), 24.000 fps, AVC, ~29.7 Mbps, 0.597 bits/pixel
Звук:
Русский, 48.0 KHz, AC3, 6 ch, 384 Kbps
Турецкий, 48.0 KHz, DTS-HD Master Audio, 6 ch, 1896 kbps 16-bit (DTS Core: 5.1 / 48 kHz / 1509 kbps / 16-bit)
Субтитры:
Английские, PGS
Русские, SRT(UTF-8)

MI

Общее
Уникальный идентификатор : 195468188259671205495310750364182894824 (0x930DCDBEEB415C3F91419E99F66DD8E8)
Полное имя : E:FILMSMustang.2015.BDRemux.mkv
Формат : Matroska
Версия формата : Version 4 / Version 2
Размер файла : 21,9 Гбайт
Продолжительность : 1 ч. 37 м.
Режим общего битрейта : Переменный
Общий поток : 32,3 Мбит/сек
Дата кодирования : UTC 2016-05-02 09:34:20
Программа кодирования : mkvmerge v9.1.0 ('Little Earthquakes') 64bit
Библиотека кодирования : libebml v1.3.3 + libmatroska v1.4.4
Видео
Идентификатор : 1
Формат : AVC
Формат/Информация : Advanced Video Codec
Профиль формата : High@L4.1
Параметр CABAC формата : Да
Параметр ReFrames формата : 4 кадра
Идентификатор кодека : V_MPEG4/ISO/AVC
Продолжительность : 1 ч. 37 м.
Вид битрейта : Переменный
Битрейт : 30,0 Мбит/сек
Максимальный битрейт : 35,0 Мбит/сек
Ширина : 1920 пикселей
Высота : 1080 пикселей
Соотношение сторон : 16:9
Режим частоты кадров : Постоянный
Частота кадров : 24,000 кадра/сек
Стандарт вещания : NTSC
Цветовое пространство : YUV
Субдискретизация насыщенности : 4:2:0
Битовая глубина : 8 бит
Тип развёртки : Прогрессивная
Бит/(Пиксели*Кадры) : 0.603
Размер потока : 20,3 Гбайт (93%)
Default : Нет
Forced : Нет
Цветовой диапазон : Limited
Основные цвета : BT.709
Характеристики трансфера : BT.709
Коэффициенты матрицы : BT.709
Аудио #1
Идентификатор : 2
Формат : AC-3
Формат/Информация : Audio Coding 3
Расширение режима : CM (complete main)
Параметр Endianness формата : Big
Идентификатор кодека : A_AC3
Продолжительность : 1 ч. 37 м.
Вид битрейта : Постоянный
Битрейт : 384 Кбит/сек
Каналы : 6 каналов
Расположение каналов : Front: L C R, Side: L R, LFE
Частота : 48,0 КГц
Частота кадров : 31,250 кадров/сек (1536 spf)
Метод сжатия : С потерями
Размер потока : 267 Мбайт (1%)
Язык : Russian
Default : Да
Forced : Нет
Аудио #2
Идентификатор : 3
Формат : DTS
Формат/Информация : Digital Theater Systems
Профиль формата : MA / Core
Режим : 16
Параметр Endianness формата : Big
Идентификатор кодека : A_DTS
Продолжительность : 1 ч. 37 м.
Вид битрейта : Переменный / Постоянный
Битрейт : 1920 Кбит/сек / 1509 Кбит/сек
Каналы : 6 каналов
Расположение каналов : Front: L C R, Side: L R, LFE
Частота : 48,0 КГц
Частота кадров : 93,750 кадра/сек (512 spf)
Битовая глубина : 16 бит
Метод сжатия : Без потерь / Lossy
Размер потока : 1,29 Гбайт (6%)
Язык : Turkish
Default : Нет
Forced : Нет
Текст #1
Идентификатор : 4
Формат : PGS
Режим смешивания : zlib
Идентификатор кодека : S_HDMV/PGS
Идентификатор кодека/Информация : Picture based subtitle format used on BDs/HD-DVDs
Продолжительность : 1 ч. 30 м.
Битрейт : 8257 бит/сек
Count of elements : 1598
Размер потока : 5,37 Мбайт (0%)
Язык : English
Default : Нет
Forced : Нет
Текст #2
Идентификатор : 5
Формат : UTF-8
Идентификатор кодека : S_TEXT/UTF8
Идентификатор кодека/Информация : UTF-8 Plain Text
Продолжительность : 1 ч. 31 м.
Битрейт : 58 бит/сек
Count of elements : 679
Размер потока : 38,8 Кбайт (0%)
Язык : Russian
Default : Нет
Forced : Нет
Меню
00:00:00.000 : en:00:00:00.000
00:05:29.000 : en:00:05:29.000
00:10:33.667 : en:00:10:33.667
00:15:16.000 : en:00:15:16.000
00:20:54.208 : en:00:20:54.208
00:30:35.083 : en:00:30:35.083
00:41:01.375 : en:00:41:01.375
00:51:52.625 : en:00:51:52.625
00:59:34.625 : en:00:59:34.625
01:12:25.083 : en:01:12:25.083
01:25:12.917 : en:01:25:12.917
01:32:10.250 : en:01:32:10.250

Скриншоты

Релиз от: Temperest
[Профиль] [ЛС]
Показать сообщения:    

Текущее время: Сегодня 22:37

Часовой пояс: GMT



Вы не можете начинать темы
Вы не можете отвечать на сообщения
Вы не можете редактировать свои сообщения
Вы не можете удалять свои сообщения
Вы не можете голосовать в опросах
Вы не можете прикреплять файлы к сообщениям
Вы не можете скачивать файлы