Мумия / Проклятье фараонов / The Mummy (Теренс Фишер / Terence Fisher) [1959, Великобритания, ужасы, BDRemux 1080p] MVO (DVD Магия) + DVO (НТВ+) + Sub Eng + Original Eng

 
Автор Сообщение

sergej644 ®

Пол:

Стаж: 4 года 11 месяцев

Сообщений: 6043

Откуда: Soviet Union



Награды: Нет

Торрент-статистика

Создавать темы 18-Июн-2015 22:26

[Цитировать]

Мумия / Проклятье фараонов / The Mummy
Страна: Великобритания
Жанр: ужасы
Год выпуска: 1959
Продолжительность: 01:28:00
Перевод: Профессиональный (многоголосый закадровый) DVD Магия
Перевод: Профессиональный (двухголосый закадровый) НТВ+
Cубтитры: английские
Оригинальная аудиодорожка: английский
Режиссер: Теренс Фишер / Terence Fisher
В ролях: Питер Кушинг, Кристофер Ли, Ивонн Фюрно, Эдди Бирн, Феликс Эйлмер, Рэймонд Хантли, Джордж Пэстелл, Майкл Риппер, Джордж Вудбридж, Харольд Гудвин
Описание: В 1895 году группа британских археологов из клана Бэннингов на раскопках в Египте обнаружила и вскрыла гробницу легендарной жрицы Ананки. Как это обычно и бывает, ослушавшись совета одного из местных жителей не вскрывать гробницу, ибо "тот кто ограбит гробницы Египта - умрет", археологи проникли внутрь захоронения, чем и навлекли на себя гнев почитателей древнего божества. Через три года, уже в Англии, с членами семьи Бэннингов, участвовавших в той злополучной экспедиции, начинают случаться неприятности, приведшие к смерти двух из них... Приехавший из Лондона инспектор Малруни сначала отказывается верить в то, что причиной смерти явилось древнее проклятие, а непосредственным убийцей является ожившая мумия, но дальнейшие факты заставили его кардинально изменить свою точку зрения...
Доп. информация: За исходник огромное спасибо DBaT @ HDBits. DVD Магия с лицензионного издания (thnx serg2155), за дорогу НТВ+ спасибо tanda2007. В двухканальной дороге DVD Магия один канал оказался пустым, посему здесь дорога представлена одноканальной.
Сэмпл: https://yadi.sk/i/aaVCqz66dm32t
Тип релиза: BDRemux 1080p
Контейнер: MKV
Видео: MPEG-4 AVC Video / 24992 kbps / 1080p / 24 fps / 16:9 / High Profile 4.1
Аудио: Russian / Dolby Digital Audio / 1.0 / 48 kHz / 192 kbps (Многоголосый закадровый - DVD Магия)
Аудио: Russian / Dolby Digital Audio / 1.0 / 48 kHz / 192 kbps (Многоголосый закадровый - НТВ+)
Аудио: English / DTS-HD Master Audio / 2.0 / 48 kHz / 1782 kbps / 24-bit (DTS Core: 2.0 / 48 kHz / 1509 kbps / 24-bit)
Аудио: English / Dolby Digital Audio / 2.0 / 48 kHz / 192 kbps (Audio Commentary)

MediaInfo

General
Unique ID : 245843336198064329867647936736055555790 (0xB8F3B44BC5AAC631ADBDB6F800D076CE)
Complete name : E:\The Mummy 1959 BDRemux 1080p.mkv
Format : Matroska
Format version : Version 4 / Version 2
File size : 16.8 GiB
Duration : 1h 27mn
Overall bit rate mode : Variable
Overall bit rate : 27.3 Mbps
Movie name : The Mummy (1959)
Encoded date : UTC 2015-01-03 08:43:35
Writing application : mkvmerge v7.3.0 ('Nouages') 32bit built on Oct 22 2014 18:44:01
Writing library : libebml v1.3.0 + libmatroska v1.4.1
DURATION : 01:27:59.776000000
NUMBER_OF_FRAMES : 164993
NUMBER_OF_BYTES : 126714624
_STATISTICS_WRITING_APP : mkvmerge v7.3.0 ('Nouages') 32bit built on Oct 22 2014 18:44:01
_STATISTICS_WRITING_DATE_UTC : 2015-01-03 08:43:35
_STATISTICS_TAGS : BPS DURATION NUMBER_OF_FRAMES NUMBER_OF_BYTES
Video
ID : 1
Format : AVC
Format/Info : Advanced Video Codec
Format profile : High@L4.1
Format settings, CABAC : Yes
Format settings, ReFrames : 4 frames
Codec ID : V_MPEG4/ISO/AVC
Duration : 1h 27mn
Bit rate mode : Variable
Maximum bit rate : 33.0 Mbps
Width : 1 920 pixels
Height : 1 080 pixels
Display aspect ratio : 16:9
Frame rate mode : Constant
Frame rate : 24.000 fps
Color space : YUV
Chroma subsampling : 4:2:0
Bit depth : 8 bits
Scan type : Progressive
Title : MPEG-4 AVC Video / 24992 kbps / 1080p / 24 fps / 16:9 / High Profile 4.1
Language : English
Default : Yes
Forced : No
DURATION : 01:27:59.708000000
NUMBER_OF_FRAMES : 126713
NUMBER_OF_BYTES : 16440008681
_STATISTICS_WRITING_APP : mkvmerge v7.3.0 ('Nouages') 32bit built on Oct 22 2014 18:44:01
_STATISTICS_WRITING_DATE_UTC : 2015-01-03 08:43:35
_STATISTICS_TAGS : BPS DURATION NUMBER_OF_FRAMES NUMBER_OF_BYTES
Audio #1
ID : 2
Format : AC-3
Format/Info : Audio Coding 3
Mode extension : CM (complete main)
Format settings, Endianness : Big
Codec ID : A_AC3
Duration : 1h 27mn
Bit rate mode : Constant
Bit rate : 192 Kbps
Channel(s) : 1 channel
Channel positions : Front: C
Sampling rate : 48.0 KHz
Bit depth : 16 bits
Compression mode : Lossy
Stream size : 121 MiB (1%)
Title : MVO - DVD Магия
Language : Russian
Default : Yes
Forced : No
Audio #2
ID : 3
Format : AC-3
Format/Info : Audio Coding 3
Mode extension : CM (complete main)
Format settings, Endianness : Big
Codec ID : A_AC3
Duration : 1h 27mn
Bit rate mode : Constant
Bit rate : 192 Kbps
Channel(s) : 1 channel
Channel positions : Front: C
Sampling rate : 48.0 KHz
Bit depth : 16 bits
Compression mode : Lossy
Stream size : 121 MiB (1%)
Title : DVO - НТВ+
Language : Russian
Default : No
Forced : No
Audio #3
ID : 4
Format : DTS
Format/Info : Digital Theater Systems
Format profile : MA / Core
Mode : 16
Format settings, Endianness : Big
Codec ID : A_DTS
Duration : 1h 27mn
Bit rate mode : Variable
Bit rate : Unknown / 1 509 Kbps
Channel(s) : 2 channels
Channel positions : Front: L R
Sampling rate : 48.0 KHz
Bit depth : 24 bits
Compression mode : Lossless / Lossy
Language : English
Default : No
Forced : No
Audio #4
ID : 5
Format : AC-3
Format/Info : Audio Coding 3
Mode extension : CM (complete main)
Format settings, Endianness : Big
Codec ID : A_AC3
Duration : 1h 27mn
Bit rate mode : Constant
Bit rate : 192 Kbps
Channel(s) : 2 channels
Channel positions : Front: L R
Sampling rate : 48.0 KHz
Bit depth : 16 bits
Compression mode : Lossy
Stream size : 121 MiB (1%)
Title : Audio Commentary
Language : English
Default : No
Forced : No
Text #1
ID : 6
Format : UTF-8
Codec ID : S_TEXT/UTF8
Codec ID/Info : UTF-8 Plain Text
Language : English
Default : No
Forced : No
Text #2
ID : 7
Format : UTF-8
Codec ID : S_TEXT/UTF8
Codec ID/Info : UTF-8 Plain Text
Title : SDH
Language : English
Default : No
Forced : No
Menu
00:00:00.000 : en:00:00:00.000
00:07:54.625 : en:00:07:54.625
00:14:34.792 : en:00:14:34.792
00:21:45.292 : en:00:21:45.292
00:27:46.000 : en:00:27:46.000
00:33:05.583 : en:00:33:05.583
00:42:05.583 : en:00:42:05.583
00:49:57.125 : en:00:49:57.125
00:56:07.875 : en:00:56:07.875
01:03:36.708 : en:01:03:36.708
01:09:14.542 : en:01:09:14.542
01:19:04.417 : en:01:19:04.417

Скриншоты

[Профиль] [ЛС]
Показать сообщения:    

Текущее время: Сегодня 02:15

Часовой пояс: GMT



Вы не можете начинать темы
Вы не можете отвечать на сообщения
Вы не можете редактировать свои сообщения
Вы не можете удалять свои сообщения
Вы не можете голосовать в опросах
Вы не можете прикреплять файлы к сообщениям
Вы не можете скачивать файлы