Мумия: Трилогия / The Mummy: Trilogy (1999-2008) HDDVDRip 1080p, BDRip 1080p

 
Автор Сообщение

Russian Mafia ®

Пол:

Стаж: 1 год 8 месяцев

Сообщений: 4247



Награды: 10 (Подробнее)

Mega Seeder 5 (Количество: 1) Top Releaser 3 (Количество: 1) Top Releaser 4 (Количество: 1)
Торрент-статистика

Создавать темы 14-Сен-2015 17:16

[Цитировать]

Жанр: Фэнтези, боевик, триллер, приключения
Год выпуска: 1999 / 2001 / 2008
Продолжительность: 02:04:53 / 02:09:38 / 01:51:40
Режиссёр: Стивен Соммерс, Роб Коэн

Мумия / The Mummy (1999) HDDVDRip 1080p


Информация о фильме
Название: Мумия
Оригинальное название: The Mummy
Год выхода: 1999
Жанр: Фэнтези, боевик, приключения
Режиссер: Стивен Соммерс
В ролях: Брендан Фрейзер, Рейчел Вайс, Джон Ханна, Арнольд Вослу, Кевин Дж. О’Коннор, Одед Фер, Джонатан Хайд, Эрик Авари, Бернард Фокс, Стивен Данэм
О фильме:
На бескрайних просторах египетской пустыни компания сорвиголов разных национальностей рыщет в поисках несметных сокровищ фараона, над которыми тяготеет жуткое древнее проклятие.
Рядом с кладом покоится мумия коварного жреца, жестоко казненного за ужасное убийство могущественного правителя Египта. Золотоискатели потревожили многовековой покой гробницы, и мумия встает из могилы, чтобы погрузить мир в царство кошмара…

Страна: США
Студия: Universal Pictures, Alphaville Films
Продолжительность: 02:04:53
Перевод: Профессиональный (двухголосый, закадровый) Премьер-Видео-Фильм + Оригинал
Файл
Кодек: x264
Качество: HDDVDRip 1080p (источник: HDCLUB / HD DVD Remux / 1080p)
Видео: 1920х816 (2.35:1), 7836 Kbps, 23.976 fps, 0.209 bit/pixel
Аудио #1: 48.0 kHz, AC3 Dolby Digital, 3/2 (L,C,R,l,r) + LFE ch, 640 kbps [Двухголосый, Премьер-Видео-Фильм]
Аудио #2: 48.0 kHz, AC3 Dolby Digital, 3/2 (L,C,R,l,r) + LFE ch, 640 kbps [Английский]
Аудио #3: 48.0 kHz, AC3 Dolby Digital, 3/2 (L,C,R,l,r) + LFE ch, 640 kbps [Авторский, А. Гаврилов] отдельно на disk.yandex.ru
Субтитры: Русские [форсированные, полные], Английские [полные, SDH]
Размер: 7.95 GB
Семпл


x264 / MediaInfox264 [info]: frame I:1615 Avg QP:16.65 size:146905
x264 [info]: frame P:54847 Avg QP:19.33 size: 60944
x264 [info]: frame B:123192 Avg QP:20.61 size: 30494
General
Unique ID : 188499430464672139371907663576632091490 (0x8DCFAB7599A058ABAB5A0DE2DB836362)
Complete name : E:The.Mummy.Trilogy.1999-2008.x264.HDDVDRip.1080p.BDRip.1080pThe.Mummy.1999.x264.HDDVDRip.1080p.mkv
Format : Matroska
Format version : Version 4 / Version 2
File size : 7.95 GiB
Duration : 2h 4mn
Overall bit rate : 9 115 Kbps
Encoded date : UTC 2013-03-08 08:39:46
Writing application : mkvmerge v6.1.0 ('Old Devil') built on Mar 2 2013 14:32:37
Writing library : libebml v1.3.0 + libmatroska v1.4.0
Video
ID : 1
Format : AVC
Format/Info : Advanced Video Codec
Format profile : High@L4.1
Format settings, CABAC : Yes
Format settings, ReFrames : 5 frames
Codec ID : V_MPEG4/ISO/AVC
Duration : 2h 4mn
Bit rate : 7 836 Kbps
Width : 1 920 pixels
Height : 816 pixels
Display aspect ratio : 2.35:1
Frame rate mode : Constant
Frame rate : 23.976 fps
Color space : YUV
Chroma subsampling : 4:2:0
Bit depth : 8 bits
Scan type : Progressive
Bits/(Pixel*Frame) : 0.209
Stream size : 6.68 GiB (84%)
Writing library : x264 core 129 r2245 bc13772
Encoding settings : cabac=1 / ref=5 / deblock=1:0:0 / analyse=0x3:0x133 / me=tesa / subme=11 / psy=1 / psy_rd=1.00:0.05 / mixed_ref=1 / me_range=32 / chroma_me=1 / trellis=2 / 8x8dct=1 / cqm=0 / deadzone=21,11 / fast_pskip=0 / chroma_qp_offset=-3 / threads=12 / lookahead_threads=2 / sliced_threads=0 / nr=0 / decimate=0 / interlaced=0 / bluray_compat=0 / constrained_intra=0 / bframes=3 / b_pyramid=2 / b_adapt=2 / b_bias=0 / direct=3 / weightb=1 / open_gop=0 / weightp=2 / keyint=240 / keyint_min=23 / scenecut=40 / intra_refresh=0 / rc_lookahead=60 / rc=2pass / mbtree=1 / bitrate=7836 / ratetol=1.0 / qcomp=0.60 / qpmin=0 / qpmax=69 / qpstep=4 / cplxblur=20.0 / qblur=0.5 / ip_ratio=1.40 / aq=1:1.00
Language : English
Default : Yes
Forced : No
Audio #1
ID : 2
Format : AC-3
Format/Info : Audio Coding 3
Mode extension : CM (complete main)
Format settings, Endianness : Big
Codec ID : A_AC3
Duration : 2h 4mn
Bit rate mode : Constant
Bit rate : 640 Kbps
Channel(s) : 6 channels
Channel positions : Front: L C R, Side: L R, LFE
Sampling rate : 48.0 KHz
Bit depth : 16 bits
Compression mode : Lossy
Stream size : 572 MiB (7%)
Title : AC3 5.1ch 640 kbps - Двухголосый, Премьер-Видео-Фильм
Language : Russian
Default : Yes
Forced : No
Audio #2
ID : 3
Format : AC-3
Format/Info : Audio Coding 3
Mode extension : CM (complete main)
Format settings, Endianness : Big
Codec ID : A_AC3
Duration : 2h 4mn
Bit rate mode : Constant
Bit rate : 640 Kbps
Channel(s) : 6 channels
Channel positions : Front: L C R, Side: L R, LFE
Sampling rate : 48.0 KHz
Bit depth : 16 bits
Compression mode : Lossy
Stream size : 572 MiB (7%)
Title : AC3 5.1ch 640 kbps - Английский
Language : English
Default : No
Forced : No
Text #1
ID : 4
Format : UTF-8
Codec ID : S_TEXT/UTF8
Codec ID/Info : UTF-8 Plain Text
Title : Русские [форсированные]
Language : Russian
Default : Yes
Forced : No
Text #2
ID : 5
Format : UTF-8
Codec ID : S_TEXT/UTF8
Codec ID/Info : UTF-8 Plain Text
Title : Русские [полные]
Language : Russian
Default : No
Forced : No
Text #3
ID : 6
Format : UTF-8
Codec ID : S_TEXT/UTF8
Codec ID/Info : UTF-8 Plain Text
Title : Английские [полные]
Language : English
Default : No
Forced : No
Text #4
ID : 7
Format : UTF-8
Codec ID : S_TEXT/UTF8
Codec ID/Info : UTF-8 Plain Text
Title : Английские [SDH]
Language : English
Default : No
Forced : No
Menu
00:00:00.000 : en:The Living Death
00:07:10.430 : en:Sand and Blood
00:12:19.155 : en:The Key to Hamunaptra
00:23:19.732 : en:The Expedition
00:29:03.116 : en:The Magi Strike
00:36:46.121 : en:The City of the Dead
00:43:38.908 : en:Chambers of Death
00:49:06.610 : en:Leave or Die!
00:53:33.877 : en:The Black Book
00:57:29.655 : en:The Bringer of Death
01:11:13.352 : en:A Curse in Cairo
01:18:48.307 : en:The Regeneration
01:27:29.619 : en:Evelyn's Choice
01:30:03.898 : en:Back to Hamunaptra
01:36:32.870 : en:Against the Dead
01:43:58.023 : en:The Gold Book
01:49:44.661 : en:Death of a Mortal
01:56:51.671 : en:End Titles

Мумия возвращается / The Mummy Returns (2001) HDDVDRip 1080p


Информация о фильме
Название: Мумия возвращается
Оригинальное название: The Mummy Returns
Год выхода: 2001
Жанр: Фэнтези, боевик, приключения
Режиссер: Стивен Соммерс
В ролях: Брендан Фрейзер, Рейчел Вайс, Джон Ханна, Арнольд Вослу, Одед Фер, Патрисия Веласкес, Фредди Боат, Алан Армстронг, Дуэйн Джонсон, Адевале Акинойе-Агбаже
О фильме:
Прошло десять лет… Наш отважный герой, искатель приключений Рик О`Конелл, теперь богат, счастливо женат на прекрасной Эвелин и воспитывает своего восьмилетнего сына Алекса.
Но злой рок не дает очаровательной семье О`Конеллов насладиться спокойной жизнью. Зловещий жрец Имхотеп снова восстал из мертвых! Теперь у Рика, Эвелин и малютки Алекса есть всего семь дней, чтобы спасти мир…

Страна: США
Студия: Universal Pictures, Alphaville Films, Imhotep Productions
Продолжительность: 02:09:38
Перевод: Профессиональный (двухголосый, закадровый) |Blu-ray CEE| + Дублированный + Оригинал
Файл
Кодек: x264
Качество: HDDVDRip 1080p (источник: HDCLUB / HD DVD Remux / 1080p)
Видео: 1920х816 (2.35:1), 7501 Kbps, 23.976 fps, 0.200 bit/pixel
Аудио #1: 48.0 kHz, AC3 Dolby Digital, 3/2 (L,C,R,l,r) + LFE ch, 448 kbps [Двухголосый, Blu-ray CEE]
Аудио #2: 48.0 kHz, AC3 Dolby Digital, 2/0 (L,R) ch, 192 kbps [Дубляж]
Аудио #3: 48.0 kHz, AC3 Dolby Digital, 3/2 (L,C,R,l,r) + LFE ch, 640 kbps [Английский]
Аудио #4: 48.0 kHz, AC3 Dolby Digital, 3/2 (L,C,R,l,r) + LFE ch, 640 kbps [Авторский, А. Гаврилов] отдельно на disk.yandex.ru
Субтитры: Русские [форсированные, полные], Английские [полные, SDH]
Размер: 7.95 GB
Семпл


x264 / MediaInfox264 [info]: frame I:1726 Avg QP:17.43 size:150068
x264 [info]: frame P:60142 Avg QP:20.44 size: 56981
x264 [info]: frame B:124621 Avg QP:21.47 size: 28925
General
Unique ID : 236772910764454938522165668910212839146 (0xB220CDCB7AB9323A8AE8DB1B6DB7F6EA)
Complete name : E:The.Mummy.Trilogy.1999-2008.x264.HDDVDRip.1080p.BDRip.1080pThe.Mummy.Returns.2001.x264.HDDVDRip.1080p.mkv
Format : Matroska
Format version : Version 4 / Version 2
File size : 7.95 GiB
Duration : 2h 9mn
Overall bit rate : 8 781 Kbps
Encoded date : UTC 2013-03-08 09:04:37
Writing application : mkvmerge v6.1.0 ('Old Devil') built on Mar 2 2013 14:32:37
Writing library : libebml v1.3.0 + libmatroska v1.4.0
Video
ID : 1
Format : AVC
Format/Info : Advanced Video Codec
Format profile : High@L4.1
Format settings, CABAC : Yes
Format settings, ReFrames : 5 frames
Codec ID : V_MPEG4/ISO/AVC
Duration : 2h 9mn
Bit rate : 7 501 Kbps
Width : 1 920 pixels
Height : 816 pixels
Display aspect ratio : 2.35:1
Frame rate mode : Constant
Frame rate : 23.976 fps
Color space : YUV
Chroma subsampling : 4:2:0
Bit depth : 8 bits
Scan type : Progressive
Bits/(Pixel*Frame) : 0.200
Stream size : 6.63 GiB (83%)
Writing library : x264 core 129 r2245 bc13772
Encoding settings : cabac=1 / ref=5 / deblock=1:-1:-1 / analyse=0x3:0x133 / me=tesa / subme=11 / psy=1 / psy_rd=1.00:0.04 / mixed_ref=1 / me_range=32 / chroma_me=1 / trellis=2 / 8x8dct=1 / cqm=0 / deadzone=21,11 / fast_pskip=0 / chroma_qp_offset=-3 / threads=12 / lookahead_threads=2 / sliced_threads=0 / nr=0 / decimate=0 / interlaced=0 / bluray_compat=0 / constrained_intra=0 / bframes=3 / b_pyramid=2 / b_adapt=2 / b_bias=0 / direct=3 / weightb=1 / open_gop=0 / weightp=2 / keyint=240 / keyint_min=23 / scenecut=40 / intra_refresh=0 / rc_lookahead=60 / rc=2pass / mbtree=1 / bitrate=7501 / ratetol=1.0 / qcomp=0.60 / qpmin=0 / qpmax=69 / qpstep=4 / cplxblur=20.0 / qblur=0.5 / ip_ratio=1.40 / aq=1:1.00
Language : English
Default : Yes
Forced : No
Audio #1
ID : 2
Format : AC-3
Format/Info : Audio Coding 3
Mode extension : CM (complete main)
Format settings, Endianness : Big
Codec ID : A_AC3
Duration : 2h 9mn
Bit rate mode : Constant
Bit rate : 448 Kbps
Channel(s) : 6 channels
Channel positions : Front: L C R, Side: L R, LFE
Sampling rate : 48.0 KHz
Bit depth : 16 bits
Compression mode : Lossy
Stream size : 415 MiB (5%)
Title : AC3 5.1ch 448 kbps - Двухголосый, Blu-ray CEE
Language : Russian
Default : Yes
Forced : No
Audio #2
ID : 3
Format : AC-3
Format/Info : Audio Coding 3
Mode extension : CM (complete main)
Format settings, Endianness : Big
Codec ID : A_AC3
Duration : 2h 9mn
Bit rate mode : Constant
Bit rate : 192 Kbps
Channel(s) : 2 channels
Channel positions : Front: L R
Sampling rate : 48.0 KHz
Bit depth : 16 bits
Compression mode : Lossy
Stream size : 178 MiB (2%)
Title : AC3 2.0ch 192 kbps - Дубляж
Language : Russian
Default : No
Forced : No
Audio #3
ID : 4
Format : AC-3
Format/Info : Audio Coding 3
Mode extension : CM (complete main)
Format settings, Endianness : Big
Codec ID : A_AC3
Duration : 2h 9mn
Bit rate mode : Constant
Bit rate : 640 Kbps
Channel(s) : 6 channels
Channel positions : Front: L C R, Side: L R, LFE
Sampling rate : 48.0 KHz
Bit depth : 16 bits
Compression mode : Lossy
Stream size : 593 MiB (7%)
Title : AC3 5.1ch 640 kbps - Английский
Language : English
Default : No
Forced : No
Text #1
ID : 5
Format : UTF-8
Codec ID : S_TEXT/UTF8
Codec ID/Info : UTF-8 Plain Text
Title : Русские [форсированные]
Language : Russian
Default : Yes
Forced : No
Text #2
ID : 6
Format : UTF-8
Codec ID : S_TEXT/UTF8
Codec ID/Info : UTF-8 Plain Text
Title : Русские [полные]
Language : Russian
Default : No
Forced : No
Text #3
ID : 7
Format : UTF-8
Codec ID : S_TEXT/UTF8
Codec ID/Info : UTF-8 Plain Text
Title : Английские [полные]
Language : English
Default : No
Forced : No
Text #4
ID : 8
Format : UTF-8
Codec ID : S_TEXT/UTF8
Codec ID/Info : UTF-8 Plain Text
Title : Английские [SDH]
Language : English
Default : No
Forced : No
Menu
00:00:00.000 : en:Legend of the Scorpion King
00:07:10.430 : en:The Family O'connell
00:12:19.155 : en:Visions of the Past
00:23:19.732 : en:The Bracelet of Anubis
00:29:03.116 : en:The Unholy Treasure
00:36:46.121 : en:Alex's New Bracelet
00:43:38.908 : en:The Siege of O'connell Manor
00:49:06.610 : en:Resurrection
00:53:33.877 : en:The Soldier Mummies
00:57:29.655 : en:Kidnapped
01:11:13.352 : en:Izzy's Magic Carpet
01:18:48.307 : en:Visions of Nefertiri
01:27:29.619 : en:The Wall of Water
01:30:03.898 : en:The Pygmy Mummies
01:36:32.870 : en:A Death in the Family
01:43:58.023 : en:Face-to-Face
01:49:44.661 : en:The Scorpion King
01:56:51.671 : en:To Kill a Scorpion

Мумия: Гробница Императора Драконов / The Mummy: Tomb of the Dragon Emperor (2008) BDRip 1080p


Информация о фильме
Название: Мумия: Гробница Императора Драконов
Оригинальное название: The Mummy: Tomb of the Dragon Emperor
Год выхода: 2008
Жанр: Фэнтези, боевик, триллер, приключения
Режиссер: Роб Коэн
В ролях: Брендан Фрейзер, Джет Ли, Мария Белло, Джон Ханна, Мишель Йео, Люк Форд, Изабелла Люн, Энтони Вонг Чау-Санг, Расселл Вонг, Лиам Каннингэм
О фильме:
Заколдованный волшебницей, безжалостный китайский император-дракон должен провести вечность в забвении. Его 10 000 воинов превратились в терракотовых воинов. Однако когда искатель приключений Алекс О`Коннелл случайно пробуждает властителя от вечной спячки, он вынужден искать помощи у единственных людей, которые знают, как справиться с воскресшими мертвецами: у своих родителей.
Монарх возвращается к жизни, и наши герои понимают, что его сила за эту тысячу лет только увеличилась. Мумия готова поднять всю Азию в борьбе за мировое господство… если О`Коннеллы ее не остановят.

Страна: США, Китай, Германия
Студия: Universal Pictures, Relativity Media, Alphaville Films
Продолжительность: 01:51:40
Перевод: Дублированный |Blu-ray CEE| + Оригинал
Файл
Кодек: x264
Качество: BDRip 1080p (источник: HDCLUB / Blu-ray Remux / 1080p)
Видео: 1920x800 (2.40:1), 9107 Kbps, 23.976 fps, 0.247 bit/pixel
Аудио #1: 48.0 kHz, AC3 Dolby Digital, 3/2 (L,C,R,l,r) + LFE ch, 448 kbps [Дубляж, Blu-ray CEE]
Аудио #2: 48.0 kHz, AC3 Dolby Digital, 3/2 (L,C,R,l,r) + LFE ch, 640 kbps [Английский]
Аудио #3: 48.0 kHz, AC3 Dolby Digital, 3/2 (L,C,R,l,r) + LFE ch, 640 kbps [Авторский, А. Гаврилов] отдельно на disk.yandex.ru
Субтитры: Русские [форсированные, полные], Английские [форсированные, полные, SDH]
Размер: 7.95 GB
Семпл


x264 / MediaInfox264 [info]: frame I:1614 Avg QP:18.59 size:186560
x264 [info]: frame P:56036 Avg QP:21.86 size: 66385
x264 [info]: frame B:102997 Avg QP:23.28 size: 34950
General
Unique ID : 195966632159011801444710042614853544524 (0x936DCCED68BD3BF288E5AAF6F0CC2A4C)
Complete name : E:The.Mummy.Trilogy.1999-2008.x264.HDDVDRip.1080p.BDRip.1080pThe.Mummy.Tomb.of.the.Dragon.Emperor.2008.x264.BDRip.1080p.mkv
Format : Matroska
Format version : Version 4 / Version 2
File size : 7.95 GiB
Duration : 1h 51mn
Overall bit rate : 10.2 Mbps
Encoded date : UTC 2013-03-08 09:23:58
Writing application : mkvmerge v6.1.0 ('Old Devil') built on Mar 2 2013 14:32:37
Writing library : libebml v1.3.0 + libmatroska v1.4.0
Video
ID : 1
Format : AVC
Format/Info : Advanced Video Codec
Format profile : High@L4.1
Format settings, CABAC : Yes
Format settings, ReFrames : 5 frames
Codec ID : V_MPEG4/ISO/AVC
Duration : 1h 51mn
Bit rate : 9 107 Kbps
Width : 1 920 pixels
Height : 800 pixels
Display aspect ratio : 2.40:1
Frame rate mode : Constant
Frame rate : 23.976 fps
Color space : YUV
Chroma subsampling : 4:2:0
Bit depth : 8 bits
Scan type : Progressive
Bits/(Pixel*Frame) : 0.247
Stream size : 6.94 GiB (87%)
Writing library : x264 core 130 r2273 b3065e6
Encoding settings : cabac=1 / ref=5 / deblock=1:-3:-3 / analyse=0x3:0x133 / me=tesa / subme=11 / psy=1 / psy_rd=1.00:0.09 / mixed_ref=1 / me_range=32 / chroma_me=1 / trellis=2 / 8x8dct=1 / cqm=0 / deadzone=21,11 / fast_pskip=0 / chroma_qp_offset=-3 / threads=12 / lookahead_threads=1 / sliced_threads=0 / nr=0 / decimate=0 / interlaced=0 / bluray_compat=0 / constrained_intra=0 / bframes=3 / b_pyramid=2 / b_adapt=2 / b_bias=0 / direct=3 / weightb=1 / open_gop=0 / weightp=2 / keyint=240 / keyint_min=23 / scenecut=40 / intra_refresh=0 / rc_lookahead=60 / rc=2pass / mbtree=1 / bitrate=9107 / ratetol=1.0 / qcomp=0.60 / qpmin=0 / qpmax=69 / qpstep=4 / cplxblur=20.0 / qblur=0.5 / ip_ratio=1.40 / aq=1:1.00
Language : English
Default : Yes
Forced : No
Audio #1
ID : 2
Format : AC-3
Format/Info : Audio Coding 3
Mode extension : CM (complete main)
Format settings, Endianness : Big
Codec ID : A_AC3
Duration : 1h 51mn
Bit rate mode : Constant
Bit rate : 448 Kbps
Channel(s) : 6 channels
Channel positions : Front: L C R, Side: L R, LFE
Sampling rate : 48.0 KHz
Bit depth : 16 bits
Compression mode : Lossy
Stream size : 358 MiB (4%)
Title : AC3 5.1ch 448 kbps - Дубляж, Blu-ray CEE
Language : Russian
Default : Yes
Forced : No
Audio #2
ID : 3
Format : AC-3
Format/Info : Audio Coding 3
Mode extension : CM (complete main)
Format settings, Endianness : Big
Codec ID : A_AC3
Duration : 1h 51mn
Bit rate mode : Constant
Bit rate : 640 Kbps
Channel(s) : 6 channels
Channel positions : Front: L C R, Side: L R, LFE
Sampling rate : 48.0 KHz
Bit depth : 16 bits
Compression mode : Lossy
Stream size : 511 MiB (6%)
Title : AC3 5.1ch 640 kbps - Английский
Language : English
Default : No
Forced : No
Text #1
ID : 4
Format : UTF-8
Codec ID : S_TEXT/UTF8
Codec ID/Info : UTF-8 Plain Text
Title : Русские [форсированные]
Language : Russian
Default : Yes
Forced : No
Text #2
ID : 5
Format : UTF-8
Codec ID : S_TEXT/UTF8
Codec ID/Info : UTF-8 Plain Text
Title : Русские [полные]
Language : Russian
Default : No
Forced : No
Text #3
ID : 6
Format : UTF-8
Codec ID : S_TEXT/UTF8
Codec ID/Info : UTF-8 Plain Text
Title : Английские [форсированные]
Language : English
Default : No
Forced : No
Text #4
ID : 7
Format : UTF-8
Codec ID : S_TEXT/UTF8
Codec ID/Info : UTF-8 Plain Text
Title : Английские [полные]
Language : English
Default : No
Forced : No
Text #5
ID : 8
Format : UTF-8
Codec ID : S_TEXT/UTF8
Codec ID/Info : UTF-8 Plain Text
Title : Английские [SDH]
Language : English
Default : No
Forced : No
Menu
00:00:00.000 : en:Search for Immortality
00:07:10.430 : en:Cursed by the Wizard
00:12:19.155 : en:Retired Life
00:23:19.732 : en:Like Father, Like Son
00:29:03.116 : en:Finding the Tomb
00:36:46.121 : en:One Last Assignment
00:43:38.908 : en:Bringing Order
00:49:06.610 : en:Rise of the Emperor
00:53:33.877 : en:Happy New Year
00:57:29.655 : en:Family Meeting
01:11:13.352 : en:Not My Type
01:18:48.307 : en:Defending the Gateway
01:27:29.619 : en:Atop the Golden Tower
01:30:03.898 : en:Shangri-La
01:36:32.870 : en:Reaching the Pool
01:43:58.023 : en:Awaken the Army
01:49:44.661 : en:Prepare for Battle
01:56:51.671 : en:Divide and Conquer
Дополнительная информация: Первые две части сделаны из HD DVD так как выигрывает в четкости у Blu-ray.

Что такое HD DVD?

Обзор: Однослойный диск HD DVD имеет ёмкость 15 GB, двухслойный — 30 GB. Toshiba также анонсировала трёхслойный диск, который может хранить до 45 GB данных. Это меньше, чем ёмкость основного соперника Blu-ray, который поддерживает 25 GB на один слой и 100 GB на три слоя. Оба формата используют одни и те же методики сжатия видео: MPEG-2, Video Codec 1 (VC-1, базируется на формате Windows Media 9) и H.264. Важным фактором привлекательности HD DVD по сравнению с Blu-ray является также тот факт, что большая часть оборудования для производства DVD может быть переоснащена для производства HD DVD, так как использует ту же технологию производства.
Война форматов: Противостояние двух форматов HD DVD и Blu-ray, неофициально названное «Война форматов», разрешилось в пользу последнего. Компания Toshiba (основной сторонник HD DVD) официально отказалась от данного формата и прекращает его производство. Важным аргументом в этом споре выступило то, что ряд голливудских киностудий и, в частности, Warner Bros (последняя компания, выпускавшая свою продукцию в обоих форматах), отказались от использования HD DVD в январе 2008 года в пользу Blu-ray. Однако записываемые и перезаписываемые диски данного формата ещё можно встретить в продаже.
[Профиль] [ЛС]
Показать сообщения:    

Текущее время: Сегодня 08:31

Часовой пояс: GMT



Вы не можете начинать темы
Вы не можете отвечать на сообщения
Вы не можете редактировать свои сообщения
Вы не можете удалять свои сообщения
Вы не можете голосовать в опросах
Вы не можете прикреплять файлы к сообщениям
Вы не можете скачивать файлы