Мумия: Гробница Императора Драконов / The Mummy: Tomb of the Dragon Emperor (Роб Коэн / Rob Cohen) [2008, США, Германия, Китай, фэнтези, приключения, DVB] [Open Matte] Dub

 
Автор Сообщение

TorrentFilm ®

Пол:

Стаж: 2 года

Сообщений: 7741



Награды: Нет

Торрент-статистика

Создавать темы 28-Апр-2015 00:03

[Цитировать]

Мумия: Гробница Императора ДраконовThe Mummy: Tomb of the Dragon Emperor- Страна: США, Германия, Китай
Жанр: фэнтези, приключения
Год выпуска: 2008
Продолжительность: 01:46:58-Перевод: Профессиональный (полное дублирование)
Режиссер: Роб Коэн / Rob Cohen
В ролях: Брендан Фрейзер (Rick O'Connell), Джет Ли (Emperor), Мария Белло (Evelyn O'Connell), Джон Ханна (Jonathan Carnahan), Мишель Йео (Zi Yuan), Люк Форд (Alex O'Connell), Изабелла Люн (Lin), Энтони Вонг Чау Санг (General Yang), Расселл Вонг (Ming Guo), Лиам Каннингэм (Maguire), Дэвид Колдер (Roger Wilson), Джесси Менг (Choi)-Описание: Заколдованный волшебницей, безжалостный китайский император-дракон должен провести вечность в забвении. Его 10 000 воинов превратились в терракотовых воинов. Однако когда искатель приключений Алекс О`Коннелл случайно пробуждает властителя от вечной спячки, он вынужден искать помощи у единственных людей, которые знают, как справиться с воскресшими мертвецами: у своих родителей.-
MPAA: PG-13 - Детям до 13 лет просмотр не желателен-За помощь в создании релиза большое спасибо TOLLL.-Качество: DVB
Контейнер: TS
Видео: MPEG-2 Video, 720x576 (4:3), 3321 kbps, 25 fps, 0,320 bpp
Аудио: 48 kHz, AC3 Dolby Digital, 2/0 (L,R) ch, ~192.00 kbps avg-СЭМПЛ - https://yadi.sk/i/U7X7K3TufyLPw-

Скриншоты

MediaInfo

General
ID : 1 (0x1)
Complete name : E:\Mummy.3.TotDE.2008.OM.DVB.ts
Format : MPEG-TS
File size : 2.76 GiB
Duration : 1h 46mn
Overall bit rate mode : Variable
Overall bit rate : 3 698 Kbps
Maximum Overall bit rate : 35.5 Mbps
Video
ID : 4113 (0x1011)
Menu ID : 1 (0x1)
Format : MPEG Video
Format version : Version 2
Format profile : Main@Main
Format settings, BVOP : Yes
Format settings, Matrix : Custom
Format settings, GOP : Variable
Format settings, picture structure : Frame
Codec ID : 2
Duration : 1h 46mn
Bit rate mode : Variable
Bit rate : 3 321 Kbps
Maximum bit rate : 15.0 Mbps
Width : 720 pixels
Height : 576 pixels
Display aspect ratio : 4:3
Frame rate : 25.000 fps
Standard : PAL
Color space : YUV
Chroma subsampling : 4:2:0
Bit depth : 8 bits
Scan type : Interlaced
Scan order : Top Field First
Compression mode : Lossy
Bits/(Pixel*Frame) : 0.320
Time code of first frame : 00:00:00:00
Time code source : Group of pictures header
GOP, Open/Closed : Open
Stream size : 2.48 GiB (90%)
Writing library : (dvd5: Jun 16 2014)
Audio
ID : 4352 (0x1100)
Menu ID : 1 (0x1)
Format : AC-3
Format/Info : Audio Coding 3
Mode extension : CM (complete main)
Format settings, Endianness : Big
Codec ID : 129
Duration : 1h 46mn
Bit rate mode : Constant
Bit rate : 192 Kbps
Channel(s) : 2 channels
Channel positions : Front: L R
Sampling rate : 48.0 KHz
Bit depth : 16 bits
Compression mode : Lossy
Stream size : 147 MiB (5%)
Language : Russian
[Профиль] [ЛС]

Russian Mafia

Пол:

Стаж: 1 год 8 месяцев

Сообщений: 4252



Награды: 10 (Подробнее)

Mega Seeder 3 (Количество: 1) Mega Seeder 1 (Количество: 1) Mega Seeder 2 (Количество: 1)
Торрент-статистика

Создавать темы 28-Апр-2015 07:43 (спустя 7 часов)

[Цитировать]

неплохой фильм, мне понравился
[Профиль] [ЛС]

Создавать темы 06-Авг-2015 22:35 (спустя 3 месяца 8 дней)

Топик был перенесен из форума Фильмы до 2014 года в форум Фильмы до 2012 года
sergej644
 

Создавать темы 12-Июн-2016 08:51 (спустя 1 год 1 месяц)

Топик был перенесен из форума Фильмы 2011 года в форум Фильмы 2006-2008 года
Russian Mafia
 
Показать сообщения:    

Текущее время: Сегодня 22:42

Часовой пояс: GMT



Вы не можете начинать темы
Вы не можете отвечать на сообщения
Вы не можете редактировать свои сообщения
Вы не можете удалять свои сообщения
Вы не можете голосовать в опросах
Вы не можете прикреплять файлы к сообщениям
Вы не можете скачивать файлы