Мумии: Секреты фараонов / Mummies: Secrets of the Pharaohs (Кейт Мелтон / Keith Melton) [2007, США, Giant Screen Films, Документальный, BDRip 720p] VO + Original Eng + Sub (Rus, Eng)

 
Автор Сообщение

TorrentFilm ®

Пол:

Стаж: 2 года

Сообщений: 7741



Награды: Нет

Торрент-статистика

Создавать темы 07-Июн-2015 00:04

[Цитировать]

Мумии: Секреты фараонов / Mummies: Secrets of the Pharaohs
Год выпуска: 2007
Страна: США
Студия: Giant Screen Films, Gravity Pictures
Жанр: Документальный, исследования, раскопки, египтология
Продолжительность: 00:38:41
Перевод: Профессиональный одноголосый
Русские субтитры: есть
Режиссер: Кейт Мелтон / Keith Melton
Описание: Вы переноситесь в увлекательный и красивый мир древнего Египта. Это археологическое и научное приключение по следам исследователей и первооткрывателей, из рассказа которых складывается представление о культуре древнего Египта, о секретах мумий, о генетических находках.
Качество: BDRip 720p
Формат: MKV
Видео: MPEG-4 AVC, 1280x720, 5816 kbps, 23.976 fps, 0.263 bit/pixel
Аудио 1: Russian, DTS, 5.1, 48 kHz, 16 bit, 768 kbps
Аудио 2: English, DTS, 5.1, 48 kHz, 16 bit, 1509 kbps

MediaInfo

x264 [info]: frame I:297 Avg QP:12.91 size:255179
x264 [info]: frame P:11628 Avg QP:15.37 size: 88716
x264 [info]: frame B:43742 Avg QP:19.77 size: 13221
-----------------------------------------------------------------------
General
Unique ID : 237823877299921386517846871559629464237 (0xB2EB3672146D10E1B15FB2DB7D4C62AD)
Complete name : J:\IMAX.Mummies.Secrets.of.the.Pharaohs.2007.x264.BDRip.(720p).mkv
Format : Matroska
Format version : Version 2
File size : 2.19 GiB
Duration : 38mn 41s
Overall bit rate : 8 089 Kbps
Movie name : IMAX - Mummies: Secrets of the Pharaohs / 2007 / Rip by PowerRock / ExKinoRay
Encoded date : UTC 2015-05-30 19:44:05
Writing application : mkvmerge v7.8.0 ('River Man') 32bit built on Apr 3 2015 12:11:22
Writing library : libebml v1.3.1 + libmatroska v1.4.2
Attachements : cover.jpg
Video
ID : 1
Format : AVC
Format/Info : Advanced Video Codec
Format profile : High@L4.1
Format settings, CABAC : Yes
Format settings, ReFrames : 9 frames
Codec ID : V_MPEG4/ISO/AVC
Duration : 38mn 41s
Bit rate : 5 816 Kbps
Width : 1 280 pixels
Height : 720 pixels
Display aspect ratio : 16:9
Frame rate mode : Constant
Frame rate : 23.976 fps
Color space : YUV
Chroma subsampling : 4:2:0
Bit depth : 8 bits
Scan type : Progressive
Bits/(Pixel*Frame) : 0.263
Stream size : 1.53 GiB (70%)
Title : IMAX - Mummies: Secrets of the Pharaohs / 2007
Writing library : x264 core 146 r2538 121396c
Encoding settings : cabac=1 / ref=9 / deblock=1:-3:-3 / analyse=0x3:0x113 / me=umh / subme=10 / psy=1 / psy_rd=1.00:0.00 / mixed_ref=1 / me_range=32 / chroma_me=1 / trellis=2 / 8x8dct=1 / cqm=0 / deadzone=21,11 / fast_pskip=0 / chroma_qp_offset=-2 / threads=6 / lookahead_threads=1 / sliced_threads=0 / nr=0 / decimate=1 / interlaced=0 / bluray_compat=0 / constrained_intra=0 / bframes=8 / b_pyramid=2 / b_adapt=2 / b_bias=0 / direct=3 / weightb=1 / open_gop=0 / weightp=2 / keyint=250 / keyint_min=23 / scenecut=40 / intra_refresh=0 / rc_lookahead=50 / rc=2pass / mbtree=1 / bitrate=5816 / ratetol=1.0 / qcomp=0.60 / qpmin=10 / qpmax=51 / qpstep=4 / cplxblur=20.0 / qblur=0.5 / vbv_maxrate=14000 / vbv_bufsize=14000 / nal_hrd=none / filler=0 / ip_ratio=1.40 / aq=1:1.00
Default : Yes
Forced : No
Audio #1
ID : 2
Format : DTS
Format/Info : Digital Theater Systems
Mode : 16
Format settings, Endianness : Big
Codec ID : A_DTS
Duration : 38mn 41s
Bit rate mode : Constant
Bit rate : 768 Kbps
Channel(s) : 6 channels
Channel positions : Front: L C R, Side: L R, LFE
Sampling rate : 48.0 KHz
Bit depth : 16 bits
Compression mode : Lossy
Stream size : 213 MiB (9%)
Language : Russian
Default : Yes
Forced : No
Audio #2
ID : 3
Format : DTS
Format/Info : Digital Theater Systems
Mode : 16
Format settings, Endianness : Big
Codec ID : A_DTS
Duration : 38mn 41s
Bit rate mode : Constant
Bit rate : 1 509 Kbps
Channel(s) : 6 channels
Channel positions : Front: L C R, Side: L R, LFE
Sampling rate : 48.0 KHz
Bit depth : 16 bits
Compression mode : Lossy
Stream size : 418 MiB (19%)
Language : English
Default : No
Forced : No
Text #1
ID : 4
Format : UTF-8
Codec ID : S_TEXT/UTF8
Codec ID/Info : UTF-8 Plain Text
Language : Russian
Default : Yes
Forced : No
Text #2
ID : 5
Format : UTF-8
Codec ID : S_TEXT/UTF8
Codec ID/Info : UTF-8 Plain Text
Language : English
Default : No

Скриншоты



[Профиль] [ЛС]
Показать сообщения:    

Текущее время: Сегодня 12:47

Часовой пояс: GMT



Вы не можете начинать темы
Вы не можете отвечать на сообщения
Вы не можете редактировать свои сообщения
Вы не можете удалять свои сообщения
Вы не можете голосовать в опросах
Вы не можете прикреплять файлы к сообщениям
Вы не можете скачивать файлы