Мул / The Mule (Тони Махони / Tony Mahony, Энгус Сэмпсон / Angus Sampson) [2014, Австралия, криминал, комедия, драма, HDRip] DVO (den904 & DeadSno)

 
Автор Сообщение

TorrentFilm ®

Пол:

Стаж: 1 год 11 месяцев

Сообщений: 7741



Награды: Нет

Торрент-статистика

Создавать темы 29-Дек-2014 00:15

[Цитировать]

Мул / The Mule
Страна: Австралия
Жанр: криминал, комедия, драма
Год выпуска: 2014
Продолжительность: 1:42:37
Перевод: Любительский (двухголосый закадровый) [den904 & DeadSno] - по переводу [dsa69]
Cубтитры: нет
Оригинальная аудиодорожка: нет
Режиссер: Тони Махони, Энгус Сэмпсон / Tony Mahony, Angus Sampson
В ролях: Хьюго Уивинг, Энгус Сэмпсон, Ли Уоннелл, Ивен Лесли, Джофф Морелл, Джорджина Хэйг, Нони Хазлхерст, Джон Ноубл, Ник Фарнелл, Саймон Кинг
Описание: История о наивном человеке, который согласился на перевозку наркотиков в своем желудке и был задержан федеральной полицией. Он, оставшийся один и напуганный, принимает отчаянное решение: бросает вызов своему организму и удерживает доказательства внутри… в буквальном смысле. Поступая таким образом, он становится «человеческой бомбой замедленного действия», затаскивая полицейских, преступников и свою семью в безвыходную авантюру.
Доп. информация: Фильм основан на реальных событиях
Внимание! Присутствует ненормативная лексика!

Ссылка на предыдущие и альтернативные раздачи
Качество видео: HDRip
Формат видео: AVI
Видео: MPEG-4 Visual, XVID, 688 x 288 (2.40:1), 24.000 fps, 876 Kbps, 0.184 bit/pix
Аудио: MPEG Audio Layer 3, 48.0 KHz, 2 ch, 128 Kbps

MediaInfo

General
Полное имя : The.Mule.2014.HDRip.740.avi
Формат : AVI
Формат/Информация : Audio Video Interleave
Размер файла : 744 MiB
Продолжительность : 1h 42mn
Общий поток : 1 013 Kbps
Программа кодирования : VirtualDubMod 1.5.10.3 | www.virtualdub-fr.org || (build 2550/release)
Библиотека кодирования : VirtualDubMod build 2550/release
Video
Идентификатор : 0
Формат : MPEG-4 Visual
Профиль формата : Advanced Simple@L5
Параметр BVOP формата : 2
Параметр QPel формата : No
Параметр GMC формата : No warppoints
Параметр матрицы формата : Default (MPEG)
Идентификатор кодека : XVID
Идентификатор кодека/Подсказка : XviD
Продолжительность : 1h 42mn
Битрейт : 876 Kbps
Ширина : 688 pixels
Высота : 288 pixels
Соотношение сторон : 2.40:1
Частота кадров : 24.000 fps
Цветовое пространство : YUV
Субдискретизация насыщенности : 4:2:0
Битовая глубина : 8 bits
Тип развёртки : Progressive
Метод сжатия : Lossy
Бит/(Пиксели*Кадры) : 0.184
Размер потока : 643 MiB (86%)
Библиотека кодирования : XviD 1.2.1 (UTC 2008-12-04)
Audio
Идентификатор : 1
Формат : MPEG Audio
Версия формата : Version 1
Профиль формата : Layer 3
Идентификатор кодека : 55
Идентификатор кодека/Подсказка : MP3
Продолжительность : 1h 42mn
Вид битрейта : Constant
Битрейт : 128 Kbps
Каналы : 2 channels
Частота : 48.0 KHz
Метод сжатия : Lossy
Размер потока : 93.9 MiB (13%)
Выравнивание : Aligned on interleaves
Продолжительность промежутка : 42 ms (1.00 video frame)
Время предзагрузки промежутка : 504 ms
Библиотека кодирования : LAME3.99r
Настройки программы : -m s -V 4 -q 2 -lowpass 17 -b 128

Скриншот c названием фильма

Скриншоты

[Профиль] [ЛС]
Показать сообщения:    

Текущее время: Сегодня 15:53

Часовой пояс: GMT



Вы не можете начинать темы
Вы не можете отвечать на сообщения
Вы не можете редактировать свои сообщения
Вы не можете удалять свои сообщения
Вы не можете голосовать в опросах
Вы не можете прикреплять файлы к сообщениям
Вы не можете скачивать файлы