Мультипликационный крокодил №1 (В. Пекарь, В. Попов, Л. Позднеев) [1960, СССР, Союзмультфильм, Мультфильм, DVB]

 
Автор Сообщение

TorrentFilm ®

Пол:

Стаж: 2 года 6 месяцев

Сообщений: 7773



Награды: Нет

Торрент-статистика

Создавать темы 17-Дек-2015 00:10

[Цитировать]

Мультипликационный крокодил №1
Страна: СССР, Союзмультфильм
Жанр: Мультфильм
Продолжительность: 00:09:44
Год выпуска: 1960
Перевод: Не требуется
Русские субтитры: нет
Режиссёр: В. Пекарь, В. Попов, Л. Позднеев
Роли озвучивали: Иван Любезнов, Лев Потемкин, Е. Семенкина, М. Докторова, А. Бухарцева
Описание: Сатирический мультжурнал для взрослых.
Я на :
Качество: DVB
Формат: MPEG-TS
Видео: MPEG Video, 3076 kbps, 704 x 576 (1.333), 25 kbps
Аудио: MPEG Audio, 160 kbps, 2 ch, 48 kHz
Субтитры: Отсутствуют

Подробные технические данные

ОбщееИдентификатор : 1 (0x1)Полное имя : D:\00-МУК-01\МУК-01.tsФормат : MPEG-TSРазмер файла : 237 МбайтПродолжительность : 9 м. 44 с.Режим общего битрейта : ПеременныйОбщий поток : 3406 Кбит/сек
ВидеоИдентификатор : 1310 (0x51E)Идентификатор меню : 310 (0x136)Формат : MPEG VideoВерсия формата : Version 2Профиль формата : Main@MainПараметр BVOP формата : ДаПараметр матрицы формата : ВыборочнаяПараметр GOP формата : VariableСтруктура изображения : FrameИдентификатор кодека : 2Продолжительность : 9 м. 44 с.Вид битрейта : ПеременныйБитрейт : 3076 Кбит/секМаксимальный битрейт : 15,0 Мбит/секШирина : 704 пикселяВысота : 576 пикселейСоотношение сторон : 4:3Частота кадров : 25,000 кадров/секСтандарт вещания : PALЦветовое пространство : YUVСубдискретизация насыщенности : 4:2:0Битовая глубина : 8 битТип развёртки : ЧересстрочнаяПорядок развёртки : Верхнее поле первоеМетод сжатия : С потерямиБит/(Пиксели*Кадры) : 0.303Временной код первого кадра : 00:00:00:00Оригинал временного кода : Group of pictures headerGOP, открыто/закрыто : ОткрытоGOP, открыто/закрыто на первом кадре : ЗакрытоРазмер потока : 214 Мбайт (90%)
АудиоИдентификатор : 2310 (0x906)Идентификатор меню : 310 (0x136)Формат : MPEG AudioВерсия формата : Version 1Профиль формата : Layer 2Идентификатор кодека : 3Продолжительность : 9 м. 44 с.Вид битрейта : ПостоянныйБитрейт : 160 Кбит/секКаналы : 2 каналаЧастота : 48,0 КГцМетод сжатия : С потерямиЗадержка видео : 3 мс.Размер потока : 11,1 Мбайт (5%)Язык : Russian

Скриншоты

[Профиль] [ЛС]
Кто просматривает тему:

Форум Тема Автор Размер
3D Мультфильмы Астерикс: Земля Богов в 3Д / Astérix: Le domaine des dieux / Asterix: The Mansions of the Gods 3D (Л.Клиши, А.Астье / L.Clichy, A.Astier) [2014, Мультфильм, Приключения, Комедия, BDrip-AVC] Half... BOSS 4.12 GB
3D Мультфильмы Аэротачки в 3Д / Sky Force 3D (Тони Тэнг / Tony Tang) [2012, мультфильм, BDrip-AVC] Half SideBySide / Горизонтальная анаморфная стереопара BOSS 5.19 GB
3D Мультфильмы Красная Шапка против зла в 3Д / Hoodwinked Too! Hood VS. Evil in 3D (Майкл Д’Иса-Хоган / Michael D'Isa-Hogan) [2011, США, мультфильм, семейный, BDrip-AVC] Half OverUnder / Ве... BOSS 3.99 GB
3D Мультфильмы Монстры против пришельцев в 3Д / Monsters vs Aliens 3D (Роб Леттерман, Конрад Вернон / Rob Letterman, Conrad Vernon) [2009, Мультфильм, Фантастика, Комедия, BDrip-AVC] Half OverUnder / Вертикальн... BOSS 5.02 GB
Мультфильмы (CAMRip, Telesynch, SCR) Никита Кожемяка (Манук Депоян) [2016 г., мультфильм, комедия, семейный, фэнтези, приключения, CamRip] E.S.P. 1.37 GB
3D Мультфильмы Оз: Возвращение в Изумрудный Город в 3Д / Legends of Oz: Dorothy's Return 3D (Уилл Финн, Дэн Ст. Пьер / Will Finn, Dan St. Pierre) [2013, Мультфильм, Мюзикл, Семейный, BDrip-AVC] Half OverUnder... BOSS 7.41 GB
3D Мультфильмы Риф в 3Д / The Reef 2: High Tide 3D (Марк А.З. Диппе, Тадонг Пак / Mark A.Z. Dippe, Taedong Park) [2012, Мультфильм, Мюзикл, Семейный, BDrip-AVC] Half OverUnder / Вертикальная анаморфная стереопара BOSS 6.12 GB
Отечественные мультфильмы Сборник мультфильмов Бориса Дежкина - Полная коллекция (1945-1984) DVDRip достали все 4.99 GB
Показать сообщения:    

Текущее время: Сегодня 02:07

Часовой пояс: GMT



Вы не можете начинать темы
Вы не можете отвечать на сообщения
Вы не можете редактировать свои сообщения
Вы не можете удалять свои сообщения
Вы не можете голосовать в опросах
Вы не можете прикреплять файлы к сообщениям
Вы не можете скачивать файлы