Мультипликационный крокодил №1 (В. Пекарь, В. Попов, Л. Позднеев) [1960, СССР, Союзмультфильм, Мультфильм, DVB]

 
Автор Сообщение

TorrentFilm ®

Пол:

Стаж: 2 года

Сообщений: 7741



Награды: Нет

Торрент-статистика

Создавать темы 17-Дек-2015 00:10

[Цитировать]

Мультипликационный крокодил №1
Страна: СССР, Союзмультфильм
Жанр: Мультфильм
Продолжительность: 00:09:44
Год выпуска: 1960
Перевод: Не требуется
Русские субтитры: нет
Режиссёр: В. Пекарь, В. Попов, Л. Позднеев
Роли озвучивали: Иван Любезнов, Лев Потемкин, Е. Семенкина, М. Докторова, А. Бухарцева
Описание: Сатирический мультжурнал для взрослых.
Я на :
Качество: DVB
Формат: MPEG-TS
Видео: MPEG Video, 3076 kbps, 704 x 576 (1.333), 25 kbps
Аудио: MPEG Audio, 160 kbps, 2 ch, 48 kHz
Субтитры: Отсутствуют

Подробные технические данные

ОбщееИдентификатор : 1 (0x1)Полное имя : D:\00-МУК-01\МУК-01.tsФормат : MPEG-TSРазмер файла : 237 МбайтПродолжительность : 9 м. 44 с.Режим общего битрейта : ПеременныйОбщий поток : 3406 Кбит/сек
ВидеоИдентификатор : 1310 (0x51E)Идентификатор меню : 310 (0x136)Формат : MPEG VideoВерсия формата : Version 2Профиль формата : Main@MainПараметр BVOP формата : ДаПараметр матрицы формата : ВыборочнаяПараметр GOP формата : VariableСтруктура изображения : FrameИдентификатор кодека : 2Продолжительность : 9 м. 44 с.Вид битрейта : ПеременныйБитрейт : 3076 Кбит/секМаксимальный битрейт : 15,0 Мбит/секШирина : 704 пикселяВысота : 576 пикселейСоотношение сторон : 4:3Частота кадров : 25,000 кадров/секСтандарт вещания : PALЦветовое пространство : YUVСубдискретизация насыщенности : 4:2:0Битовая глубина : 8 битТип развёртки : ЧересстрочнаяПорядок развёртки : Верхнее поле первоеМетод сжатия : С потерямиБит/(Пиксели*Кадры) : 0.303Временной код первого кадра : 00:00:00:00Оригинал временного кода : Group of pictures headerGOP, открыто/закрыто : ОткрытоGOP, открыто/закрыто на первом кадре : ЗакрытоРазмер потока : 214 Мбайт (90%)
АудиоИдентификатор : 2310 (0x906)Идентификатор меню : 310 (0x136)Формат : MPEG AudioВерсия формата : Version 1Профиль формата : Layer 2Идентификатор кодека : 3Продолжительность : 9 м. 44 с.Вид битрейта : ПостоянныйБитрейт : 160 Кбит/секКаналы : 2 каналаЧастота : 48,0 КГцМетод сжатия : С потерямиЗадержка видео : 3 мс.Размер потока : 11,1 Мбайт (5%)Язык : Russian

Скриншоты

[Профиль] [ЛС]
Кто просматривает тему:

Форум Тема Автор Размер
Отечественные мультфильмы 451° (Анастасия Чернова) [2012, Рисованный мультфильм, WEBRip] TorrentFilm 65 MB
Зарубежные мультфильмы 7-ой гном / Der 7bte Zwerg (Борис Альинович) [2014 г., мультфильм, DVDRip] BOSS 1.37 GB
3D Мультфильмы 7-ой гном в 3Д / Der 7bte Zwerg / The 7th Dwarf 3D (Борис Альинович / Boris Aljinovic) [2014, Мультфильм, Приключения, Семейный, BDremux, 1080p] BD3D BOSS 25.43 GB
Action FPS (1st Person) Call of Duty 2 [Multiplayer Only] / Зов Долга 2 [Только Мультплеер] [RiP] [ENG / ENG] (2005) (1.0) reversefile 1.74 GB
3D Мультфильмы Cмypфuкu 2 в 3Д / Тhе Sмurfs 2 3D (Раджа Госнелл / Raja Gosnell) [2013, Мультфильм, Фэнтези, Комедия, Семейный, BDrip, 1080p] OverUnder / Вертикальная стереопара reversefile 15.98 GB
Работа с носителями информации Daemon Tools PRO Advanced 4.41.0315.0262 RePack x86+x64+DAEMON Tools Pro 5.0.0316.0317 RePack by CTYDEHT [Мульти, есть русский 2011] TorrentFilm 20 MB
Отечественные мультфильмы Mister Пронька (мистер Пронька) (Леонид Носырев) [1991, Рисованный мультфильм, WEB-DLRip] TorrentFilm 221 MB
3D Мультфильмы Pиo 2 в 3Д / Riо 2 3D (Кaрлoс Сaлдaна) [2014, Мультфильм, комедия, приключения, семейный, полном, BDremux, 1080p] BD3D reversefile 30.37 GB
Показать сообщения:    

Текущее время: Сегодня 02:41

Часовой пояс: GMT



Вы не можете начинать темы
Вы не можете отвечать на сообщения
Вы не можете редактировать свои сообщения
Вы не можете удалять свои сообщения
Вы не можете голосовать в опросах
Вы не можете прикреплять файлы к сообщениям
Вы не можете скачивать файлы