Музей восковых фигур в 3Д / House of Wax 3D (Андре Де Тот / André De Toth) [1953, Ужасы, Триллер, BDrip, 1080p] OverUnder / Вертикальная стереопара

 
Автор Сообщение

TorrentFilm ®

Пол:

Стаж: 2 года

Сообщений: 7741



Награды: Нет

Торрент-статистика

Создавать темы 01-Янв-2016 00:18

[Цитировать]

Музей восковых фигур / House of Wax
Год выпуска: 1953
Страна: США
Студия: Warner Bros. Pictures
Жанр: Ужасы, Триллер
Продолжительность: 01:28:21
Перевод: Профессиональный (многоголосый закадровый)
Русские субтитры: нет
Режиссер на русском: Андре Де Тот
Режиссер на английском: André De Toth
В ролях: Винсент Прайс , Фрэнк Лавджой , Филлис Кирк , Кэролин Джон , Пол Пицерни , Рой Робертс , Анджела Кларк , Пол Кэвэна , Даббс Грир , Чарльз Бронсон...
Описание: Доктор Генри Джарэд был гением. Он создал великолепный музей восковых фигур, наполнив его историческими персонажами от Марка Антония и Клеопатры до Линкольна и его убийцы. Но, к сожалению, музей не пользовался популярностью и его компаньон, решил все сжечь, чтобы получить страховку. Пытаясь спасти свое детище, доктор исчезает в огне.
Спустя несколько лет открывается новый музей больше похожий на «Комнату ужасов», наполненный сценами убийств, насилия и пыток. Его персонажи так похожи на живых людей! В чем причина этого невероятного сходства? Почему рядом с музеем исчезают люди?
Сэмпл: http://www.sendspace.com/file/l2iobd
Качество: BDrip
Контейнер: MKV
Формат 3D: OverUnder / Вертикальная стереопара
Порядок ракурсов: левый ракурс первый
Видео кодек: x264
Аудио кодек: AC3
Видео: AVC / High@L5.0 / 23,976 fps / 1920х2160 / 35,2 Мбит/сек
Аудио: Русский / AC3 / 48 KHz / 2.0 ch / 192 Кбит/сек
Аудио 2: Английский / AC3 / 48 KHz / 2.0 ch / 448 Кбит/сек
Релиз группы: ВНИМАНИЕ ! На встроенных ТВ-плеерах работать не будет!!!
Железные плееры на которых воспроизводятся полные стереопары:Popcorn C-200 , Dune HD Smart D1 , Dune HD DUO , Dune HD Smart H1 , Dune HD Smart B1 , Dune HD Max , Dune HD TV-303D , Dune HD Base 3D

MediaInfo

Общее
Уникальный идентификатор : 189660248711994241171566288828584151715 (0x8EAF3C37BBF2F979B777F9515273CAA3)
Полное имя : E:\закачки\House of Wax.Rip by SeRoGa00.mkv
Формат : Matroska
Версия формата : Version 2
Размер файла : 22,5 Гбайт
Продолжительность : 1 ч. 28 м.
Общий поток : 36,5 Мбит/сек
Дата кодирования : UTC 2013-10-05 15:52:10
Программа кодирования : mkvmerge v3.4.0 ('Rapunzel') сборка от May 15 2010 09:38:20
Библиотека кодирования : libebml v0.8.0 + libmatroska v0.9.0
Видео
Идентификатор : 1
Формат : AVC
Формат/Информация : Advanced Video Codec
Профиль формата : High@L5.0
Параметр CABAC формата : Да
Параметр ReFrames формата : 4 кадра
Идентификатор кодека : V_MPEG4/ISO/AVC
Продолжительность : 1 ч. 28 м.
Битрейт : 35,2 Мбит/сек
Ширина : 1920 пикселей
Высота : 2160 пикселей
Соотношение сторон : 0,889
Частота кадров : 23,976 кадра/сек
Цветовое пространство : YUV
Субдискретизация насыщенности : 4:2:0
Битовая глубина : 8 бит
Тип развёртки : Прогрессивная
Бит/(Пиксели*Кадры) : 0.354
Размер потока : 21,7 Гбайт (96%)
Заголовок : Rip by SeRoGa00
Библиотека кодирования : x264 core 138 r2356 a1d3d17
Настройки программы : cabac=1 / ref=4 / deblock=1:-1:-1 / analyse=0x3:0x113 / me=umh / subme=9 / psy=1 / psy_rd=1.00:0.15 / mixed_ref=1 / me_range=24 / chroma_me=1 / trellis=2 / 8x8dct=1 / cqm=0 / deadzone=21,11 / fast_pskip=1 / chroma_qp_offset=-3 / threads=9 / lookahead_threads=1 / sliced_threads=0 / nr=0 / decimate=1 / interlaced=0 / bluray_compat=0 / constrained_intra=0 / bframes=8 / b_pyramid=2 / b_adapt=2 / b_bias=0 / direct=3 / weightb=1 / open_gop=0 / weightp=2 / keyint=250 / keyint_min=23 / scenecut=40 / intra_refresh=0 / rc_lookahead=60 / rc=crf / mbtree=1 / crf=18.0 / qcomp=0.70 / qpmin=10 / qpmax=69 / qpstep=4 / vbv_maxrate=40000 / vbv_bufsize=40000 / crf_max=0.0 / nal_hrd=none / ip_ratio=1.40 / aq=1:1.00
Язык : English
Аудио #1
Идентификатор : 2
Формат : AC-3
Формат/Информация : Audio Coding 3
Расширение режима : CM (complete main)
Идентификатор кодека : A_AC3
Продолжительность : 1 ч. 28 м.
Вид битрейта : Постоянный
Битрейт : 192 Кбит/сек
Каналы : 2 канала
Расположение каналов : Front: L R
Частота : 48,0 КГц
Битовая глубина : 16 бит
Метод сжатия : С потерями
Размер потока : 121 Мбайт (1%)
Язык : Russian
Аудио #2
Идентификатор : 3
Формат : AC-3
Формат/Информация : Audio Coding 3
Расширение режима : CM (complete main)
Идентификатор кодека : A_AC3
Продолжительность : 1 ч. 28 м.
Вид битрейта : Постоянный
Битрейт : 448 Кбит/сек
Каналы : 2 канала
Расположение каналов : Front: L R
Частота : 48,0 КГц
Битовая глубина : 16 бит
Метод сжатия : С потерями
Размер потока : 283 Мбайт (1%)
Язык : English

Скриншоты


[Профиль] [ЛС]
Кто просматривает тему:

Форум Тема Автор Размер
Travel Travel: Музейные тайны / Mysteries at the Museum [сезон 4 серии 1-12 из 12] (Nicholas Zeig-Owens, Remy Weber) [2013 г., Документально-постановочный, история, археология, путешествия, исследован... skorpionN 15 GB
Travel Travel: Музейные тайны / Mysteries at the Museum [сезон 5 серии 1-13 из 13] (Remy Weber, Sterling Milan, Nick Zeig-Owens) [2014 г., Документально-постановочный, история, археология, путешес... skorpionN 16.86 GB
Travel Travel: Музейные тайны / Mysteries at the Museum [сезон 6 серии 4-13 из 13] (Remy Weber, Sterling Milan, Nick Zeig-Owens) [2014 г., Документально-постановочный, история, археология, путешес... skorpionN 14.75 GB
Travel Travel: Музейные тайны / Mysteries at the Museum [сезон 7 серии 5-13 из 13] (Remy Weber, Sterling Milan, Nick Zeig-Owens) [2015 г., Документально-постановочный, история, археология, путешес... skorpionN 13.5 GB
Viasat History Viasat History: Музейные тайны / Mysteries at the Museum [сезон 1 серии 1-12 из 12] (Лаура Миллер, Макс Исааксон, Маделин Маринер) [2010 г., Документально-постановочный, история, археология, ми... skorpionN 7.11 GB
Viasat History Viasat History: Музейные тайны / Mysteries at the Museum [сезон 2 серии 1-24 из 24] (Рэми Вэбэр) [2012 г., Документально-постановочный, история, археология, мифы, тайны, SATRip] skorpionN 14.28 GB
Viasat History Viasat History: Музейные тайны / Mysteries at the Museum [сезон 3 серии 1-13 из 13] (Лаура Миллер, Макс Исааксон, Маделин Маринер) [2012 г., Документально-постановочный, история, археология, ми... skorpionN 7.46 GB
Документальные HD Лондонский Музей естествознания вживую с Дэвидом Аттенборо / David Attenborough\'s Natural History Museum Alive (Дэниэл М. Смит) [2014, Документальный, научно-познавательный, палеонтология, BDRip... TorrentFilm 2.52 GB
Показать сообщения:    

Текущее время: Сегодня 10:31

Часовой пояс: GMT



Вы не можете начинать темы
Вы не можете отвечать на сообщения
Вы не можете редактировать свои сообщения
Вы не можете удалять свои сообщения
Вы не можете голосовать в опросах
Вы не можете прикреплять файлы к сообщениям
Вы не можете скачивать файлы