Музей восковых фигур (Дом восковых фигур) в 3Д / House of Wax 3D (Андре Де Тот / André De Toth) [1953, Ужасы, Триллер, BDrip-AVC] Half OverUnder / Вертикальная анаморфная стереопара

 
Автор Сообщение

TorrentFilm ®

Пол:

Стаж: 2 года

Сообщений: 7741



Награды: Нет

Торрент-статистика

Создавать темы 01-Янв-2016 00:17

[Цитировать]

Музей восковых фигур
House of Wax

Год выпуска: 1953
Страна: США (Warner Bros. Pictures)
Жанр: Ужасы, Триллер
Продолжительность: 01:28:21
Перевод: Профессиональный (многоголосый закадровый)
Режиссер: Андре Де Тот / André De Toth
В ролях: Винсент Прайс (Prof. Henry Jarrod), Фрэнк Лавджой (Lt. Tom Brennan), Филлис Кирк (Sue Allen), Кэролин Джонс (Cathy Gray), Пол Пицерни (Scott Andrews), Рой Робертс (Matthew Burke), Анджела Кларк (Mrs. Andrews), Пол Кэвэна (Sidney Wallace), Даббс Грир (Sgt. Jim Shane), Чарльз Бронсон (в титрах: Charles Buchinsky) (Igor)
Описание: Доктор Генри Джарэд был гением. Он создал великолепный музей восковых фигур, наполнив его историческими персонажами от Марка Антония и Клеопатры до Линкольна и его убийцы. Но, к сожалению, музей не пользовался популярностью и его компаньон, решил все сжечь, чтобы получить страховку. Пытаясь спасти свое детище, доктор исчезает в огне.
Спустя несколько лет открывается новый музей больше похожий на «Комнату ужасов», наполненный сценами убийств, насилия и пыток. Его персонажи так похожи на живых людей! В чем причина этого невероятного сходства? Почему рядом с музеем исчезают люди?-Доп. информация: Снято в 3Д ("Первый фильм студии «Warner», снятый с использованием 3D-эффектов.").
3Д очень глубокое (но не сверх допустимого).
Имеются неточности кадрирования по вертикали (огрехи создателей).
Соотношение сторон кадра - 1,37 (чуть шире, чем 4:3).-Премьера: 10 апреля 1953
Бюджет: $1 000 000
Кассовые сборы (в США): $23 750 000

. .
-Качество: BDRip (by Ash61)
Контейнер: MKV
Формат 3D: Half OverUnder / Вертикальная анаморфная стереопара
Порядок ракурсов: левый ракурс первый
Видео кодек: x264
Аудио кодек: AC3-Видео: AVC / 23,976 fps / 1920х1080p / 18.3 Mbps
Аудио:
#1 - Русский / AC3 / 48 KHz / 2 ch / 192 Kbps (MVO R5 [edit])
#2 - Английский / AC3 / 48 KHz / 2 ch / 448 Kbps (Original)
Субтитры: Отсутствуют

MediaInfo

General
Unique ID : 196266018233252705118861791822351205576 (0x93A775CCEBF5ABCC994F0448144C84C8)
Complete name : E:\Downloads\HouseOfWax(1953)3D-halfOU(Ash61).mkv
Format : Matroska
Format version : Version 2
File size : 11.3 GiB
Duration : 1h 28mn
Overall bit rate : 18.3 Mbps
Movie name : Музей восковых фигур / House of Wax (1953) 3D
Encoded date : UTC 2013-09-28 20:19:46
Writing application : mkvmerge v5.8.0 ('No Sleep / Pillow') built on Sep 2 2012 15:37:04
Writing library : libebml v1.2.3 + libmatroska v1.3.0
Video
ID : 1
Format : AVC
Format/Info : Advanced Video Codec
Format profile : High@L4.1
Format settings, CABAC : Yes
Format settings, ReFrames : 4 frames
Codec ID : V_MPEG4/ISO/AVC
Duration : 1h 28mn
Bit rate : 17.3 Mbps
Width : 1 920 pixels
Height : 1 080 pixels
Display aspect ratio : 16:9
Frame rate mode : Constant
Frame rate : 23.976 fps
Color space : YUV
Chroma subsampling : 4:2:0
Bit depth : 8 bits
Scan type : Progressive
Bits/(Pixel*Frame) : 0.348
Stream size : 10.7 GiB (95%)
Title : BDRip by Ash61
Writing library : x264 core 129 r2245 bc13772
Encoding settings : cabac=1 / ref=4 / deblock=1:-1:-1 / analyse=0x3:0x113 / me=umh / subme=10 / psy=1 / psy_rd=1.00:0.15 / mixed_ref=1 / me_range=32 / chroma_me=1 / trellis=2 / 8x8dct=1 / cqm=0 / deadzone=21,11 / fast_pskip=1 / chroma_qp_offset=-3 / threads=12 / lookahead_threads=2 / sliced_threads=0 / nr=0 / decimate=1 / interlaced=0 / bluray_compat=0 / constrained_intra=0 / bframes=9 / b_pyramid=2 / b_adapt=2 / b_bias=0 / direct=3 / weightb=1 / open_gop=0 / weightp=2 / keyint=250 / keyint_min=23 / scenecut=40 / intra_refresh=0 / rc_lookahead=60 / rc=crf / mbtree=1 / crf=18.0 / qcomp=0.70 / qpmin=10 / qpmax=69 / qpstep=4 / vbv_maxrate=40000 / vbv_bufsize=30000 / crf_max=0.0 / nal_hrd=none / frame-packing=4 / ip_ratio=1.40 / aq=1:0.70
Language : English
Default : Yes
Forced : No
Audio #1
ID : 2
Format : AC-3
Format/Info : Audio Coding 3
Mode extension : CM (complete main)
Format settings, Endianness : Big
Codec ID : A_AC3
Duration : 1h 28mn
Bit rate mode : Constant
Bit rate : 192 Kbps
Channel(s) : 2 channels
Channel positions : Front: L R
Sampling rate : 48.0 KHz
Bit depth : 16 bits
Compression mode : Lossy
Stream size : 121 MiB (1%)
Title : Многоголосый закадровый (edit by Ash61)
Language : Russian
Default : Yes
Forced : No
Audio #2
ID : 3
Format : AC-3
Format/Info : Audio Coding 3
Mode extension : CM (complete main)
Format settings, Endianness : Big
Codec ID : A_AC3
Duration : 1h 28mn
Bit rate mode : Constant
Bit rate : 448 Kbps
Channel(s) : 2 channels
Channel positions : Front: L R
Sampling rate : 48.0 KHz
Bit depth : 16 bits
Compression mode : Lossy
Stream size : 283 MiB (2%)
Title : Original
Language : English
Default : No
Forced : No
Menu
00:00:00.000 : :1
00:08:38.768 : :2
00:18:19.348 : :3
00:30:23.947 : :4
00:40:55.495 : :5
00:48:45.673 : :6
01:00:53.483 : :7
01:09:29.916 : :8
01:18:29.038 : :9

Для оценки 3Д - Анимированные скрины


















Техн. детали съёмки

  • Производство 1952 — нет данных
  • Формат изображения: 1.37 : 1
  • Формат копии: 35 mm
    35 mm (Side-by-side Anamorphic)
    70 mm (blow-up) (1972 re-issue)
  • Формат съёмок: 35 mm
  • Изображение: цветное
[Профиль] [ЛС]
Кто просматривает тему:

Форум Тема Автор Размер
Travel Travel: Музейные тайны / Mysteries at the Museum [сезон 4 серии 1-12 из 12] (Nicholas Zeig-Owens, Remy Weber) [2013 г., Документально-постановочный, история, археология, путешествия, исследован... skorpionN 15 GB
Travel Travel: Музейные тайны / Mysteries at the Museum [сезон 5 серии 1-13 из 13] (Remy Weber, Sterling Milan, Nick Zeig-Owens) [2014 г., Документально-постановочный, история, археология, путешес... skorpionN 16.86 GB
Travel Travel: Музейные тайны / Mysteries at the Museum [сезон 6 серии 4-13 из 13] (Remy Weber, Sterling Milan, Nick Zeig-Owens) [2014 г., Документально-постановочный, история, археология, путешес... skorpionN 14.75 GB
Travel Travel: Музейные тайны / Mysteries at the Museum [сезон 7 серии 5-13 из 13] (Remy Weber, Sterling Milan, Nick Zeig-Owens) [2015 г., Документально-постановочный, история, археология, путешес... skorpionN 13.5 GB
Viasat History Viasat History: Музейные тайны / Mysteries at the Museum [сезон 1 серии 1-12 из 12] (Лаура Миллер, Макс Исааксон, Маделин Маринер) [2010 г., Документально-постановочный, история, археология, ми... skorpionN 7.11 GB
Viasat History Viasat History: Музейные тайны / Mysteries at the Museum [сезон 2 серии 1-24 из 24] (Рэми Вэбэр) [2012 г., Документально-постановочный, история, археология, мифы, тайны, SATRip] skorpionN 14.28 GB
Viasat History Viasat History: Музейные тайны / Mysteries at the Museum [сезон 3 серии 1-13 из 13] (Лаура Миллер, Макс Исааксон, Маделин Маринер) [2012 г., Документально-постановочный, история, археология, ми... skorpionN 7.46 GB
Документальные HD Лондонский Музей естествознания вживую с Дэвидом Аттенборо / David Attenborough\'s Natural History Museum Alive (Дэниэл М. Смит) [2014, Документальный, научно-познавательный, палеонтология, BDRip... TorrentFilm 2.52 GB
Показать сообщения:    

Текущее время: Сегодня 04:20

Часовой пояс: GMT



Вы не можете начинать темы
Вы не можете отвечать на сообщения
Вы не можете редактировать свои сообщения
Вы не можете удалять свои сообщения
Вы не можете голосовать в опросах
Вы не можете прикреплять файлы к сообщениям
Вы не можете скачивать файлы