Муж парикмахерши / Le mari de la coiffeuse (1990) BDRip 1080p | P, L1

 
Автор Сообщение

Russian Mafia ®

Пол:

Стаж: 1 год 8 месяцев

Сообщений: 4246



Награды: 10 (Подробнее)

За внесенный вклад в развитие сайта (Количество: 1) Top Releaser 2 (Количество: 1) Top Releaser 4 (Количество: 1)
Торрент-статистика

Создавать темы 31-Май-2016 17:58

[Цитировать]

Название: Муж парикмахерши
Оригинальное название: Le mari de la coiffeuse
Год выхода: 1990
Страна: Франция
Студия: Lambart Productions, TF1 Films Production, Centre National de la Cinématographie (CNC)
Продолжительность: 01:21:35
Жанр: драма, мелодрама, комедия, ...
Режиссер: Патрис Леконт
В ролях: Жан Рошфор, Анна Гальена, Ролан Бертен, Морис Шевит, Филипп Клевено, Жак Мату, Клод Офор, Альберт Дельпи, Генри Хокинг, Тикки Ольгадо, ...
Перевод:
- Профессиональный (многоголосный, закадровый)
- Любительский (одноголосый, закадровый) ...?
- Субтитры
О фильме: В детстве Антуан очень любил ходить в парикмахерскую. Как-то раз мальчик сказал родителям, что обязательно женится на парикмахерше, и тут же получил от отца оплеуху. Но желание мальчика не исчезло.
Прошли годы. В маленьком городке, где жил Антуан, появилась парикмахерша Матильда. И при первой же встрече Антуан сделал ей предложение…

Кодек: x264
Качество: BDRip 1080p
Видео: 1920x804, 10000 kbps, 24 fps
Аудио #1: AC-3, 2 ch, 192 kbps (Rus) - MVO
Аудио #2: AC-3, 2 ch, 192 kbps (Rus) - VO
Аудио #3: AC-3, 2 ch, 224 (Fre)
Субтитры: Русские, Английские

Дополнительная информация

За исходник спасибо - порошков

MediaInfo

x264 [info]: frame I:619 Avg QP:17.86 size:184408
x264 [info]: frame P:22210 Avg QP:20.40 size: 96564
x264 [info]: frame B:94651 Avg QP:22.36 size: 40741
x264 [info]: consecutive B-frames: 0.6% 0.5% 3.4% 14.0% 18.2% 54.4% 7.1% 0.8% 0.5% 0.3% 0.1%
Общее
Уникальный идентификатор : 182793412243472645194252237609451737962 (0x8984BB0A69C5CFB8B005F4BDC945536A)
Полное имя : Муж парикмахерши (Le mari de la coiffeuse) 1990 BDRip 1080p.mkv
Формат : Matroska
Версия формата : Version 2
Размер файла : 6,04 Гбайт
Продолжительность : 1 ч. 21 м.
Общий поток : 10,6 Мбит/сек
Дата кодирования : UTC 2016-05-31 16:24:26
Программа кодирования : mkvmerge v4.0.0 ('The Stars were mine') сборка от Jun 6 2010 16:18:42
Библиотека кодирования : libebml v1.0.0 + libmatroska v1.0.0
Видео
Идентификатор : 1
Формат : AVC
Формат/Информация : Advanced Video Codec
Профиль формата : High@L4.1
Параметр CABAC формата : Да
Параметр ReFrames формата : 4 кадра
Идентификатор кодека : V_MPEG4/ISO/AVC
Продолжительность : 1 ч. 21 м.
Битрейт : 10000 Кбит/сек
Ширина : 1920 пикселей
Высота : 804 пикселя
Соотношение сторон : 2,40:1
Режим частоты кадров : Постоянный
Частота кадров : 24,000 кадра/сек
Цветовое пространство : YUV
Субдискретизация насыщенности : 4:2:0
Битовая глубина : 8 бит
Тип развёртки : Прогрессивная
Бит/(Пиксели*Кадры) : 0.270
Размер потока : 5,58 Гбайт (92%)
Библиотека кодирования : x264 core 146 r2538 121396c
Настройки программы : cabac=1 / ref=4 / deblock=1:-3:-3 / analyse=0x3:0x133 / me=umh / subme=11 / psy=1 / psy_rd=1.00:0.00 / mixed_ref=1 / me_range=32 / chroma_me=1 / trellis=2 / 8x8dct=1 / cqm=0 / deadzone=21,11 / fast_pskip=0 / chroma_qp_offset=-2 / threads=12 / lookahead_threads=2 / sliced_threads=0 / nr=0 / decimate=0 / interlaced=0 / bluray_compat=0 / constrained_intra=0 / bframes=10 / b_pyramid=2 / b_adapt=2 / b_bias=0 / direct=3 / weightb=1 / open_gop=0 / weightp=2 / keyint=240 / keyint_min=24 / scenecut=40 / intra_refresh=0 / rc=2pass / mbtree=0 / bitrate=10000 / ratetol=1.0 / qcomp=0.60 / qpmin=0 / qpmax=69 / qpstep=4 / cplxblur=20.0 / qblur=0.5 / ip_ratio=1.40 / pb_ratio=1.30 / aq=1:0.80
Язык : French
Default : Нет
Forced : Нет
Аудио #1
Идентификатор : 2
Формат : AC-3
Формат/Информация : Audio Coding 3
Расширение режима : CM (complete main)
Параметр Endianness формата : Big
Идентификатор кодека : A_AC3
Продолжительность : 1 ч. 21 м.
Вид битрейта : Постоянный
Битрейт : 192 Кбит/сек
Каналы : 2 канала
Расположение каналов : Front: L R
Частота : 48,0 КГц
Метод сжатия : С потерями
Размер потока : 112 Мбайт (2%)
Заголовок : MVO
Язык : Russian
Default : Нет
Forced : Нет
Аудио #2
Идентификатор : 3
Формат : AC-3
Формат/Информация : Audio Coding 3
Расширение режима : CM (complete main)
Параметр Endianness формата : Big
Идентификатор кодека : A_AC3
Продолжительность : 1 ч. 21 м.
Вид битрейта : Постоянный
Битрейт : 192 Кбит/сек
Каналы : 2 канала
Расположение каналов : Front: L R
Частота : 48,0 КГц
Метод сжатия : С потерями
Размер потока : 112 Мбайт (2%)
Заголовок : VO
Язык : Russian
Default : Нет
Forced : Нет
Аудио #3
Идентификатор : 4
Формат : AC-3
Формат/Информация : Audio Coding 3
Расширение режима : CM (complete main)
Параметр Endianness формата : Big
Идентификатор кодека : A_AC3
Продолжительность : 1 ч. 21 м.
Вид битрейта : Постоянный
Битрейт : 224 Кбит/сек
Каналы : 2 канала
Расположение каналов : Front: L R
Частота : 48,0 КГц
Метод сжатия : С потерями
Размер потока : 131 Мбайт (2%)
Язык : French
Default : Нет
Forced : Нет
Текст #1
Идентификатор : 5
Формат : UTF-8
Идентификатор кодека : S_TEXT/UTF8
Идентификатор кодека/Информация : UTF-8 Plain Text
Язык : Russian
Default : Нет
Forced : Нет
Текст #2
Идентификатор : 6
Формат : UTF-8
Идентификатор кодека : S_TEXT/UTF8
Идентификатор кодека/Информация : UTF-8 Plain Text
Язык : English
Default : Нет
Forced : Нет

[Профиль] [ЛС]
Кто просматривает тему:

Показать сообщения:    

Текущее время: Сегодня 11:58

Часовой пояс: GMT



Вы не можете начинать темы
Вы не можете отвечать на сообщения
Вы не можете редактировать свои сообщения
Вы не можете удалять свои сообщения
Вы не можете голосовать в опросах
Вы не можете прикреплять файлы к сообщениям
Вы не можете скачивать файлы