Мужчины против женщин / Maschi contro femmine (Фаусто Брицци / Fausto Brizzi) [2010, Италия, комедия, HDTVRip] DVO (НТВ+)

 
Автор Сообщение

painkiller ®

Стаж: 2 года 10 месяцев

Сообщений: 582



Награды: Нет

Торрент-статистика

Создавать темы 14-Авг-2014 09:11

[Цитировать]

Мужчины против женщин / Maschi contro femmine
Год выпуска: 2010
Страна: Италия
Жанр: комедия
Продолжительность: 01:47:41
Перевод: Профессиональный (двухголосый, закадровый) - НТВ+ (Н. Казначеева, И. Тарадайкин)
Субтитры: нет
Режиссер: Фаусто Брицци / Fausto Brizzi
В ролях: Паола Кортеллези (Chiara), Фабио Де Луиджи (Walter), Люсия Оконе (Monica), Франческо Паннофино (Vittorio), Алессандро Прециози (Diego), Паоло Руффини (Ivan), Карла Синьорис (Nicoletta), Николас Вапоридис (Andrea), Джорджия Вурт (Eva), Клаудио Бизио (Marcello), Нэнси Брилли (Paola), Джузеппе Чедерна (Renato)-Мировая премьера: 27 октября 2010-Описание: Диего - настоящий мачо, коллекционер женских сердец и женских трусиков. Он работает в баре с танцующими официантками и, в общем, доволен всем. Не устраивает его только язвительная соседка по этажу, из-за которой у него однажды начинаются крупные проблемы.- Рейтинг
kinopoisk.ru: 6.786 (206)
imdb.com: 5.80 (1064)
-Качество: HDTVRip
Формат: AVI //SAMPLE//
Видео: 720x304 (2.37:1), 25 fps, XviD build 65 ~1542 kbps avg, 0.28 bit/pixel
Аудио: 48 kHz, AC3 Dolby Digital, 3/2 (L,C,R,l,r) + LFE ch, ~384 kbps

MediaInfo

Общее
Полное имя : F:\Video\AVI\Films\Muzhchiny.Protiv.Zhenshhin.2010.RUS.HDTVRip.XviD.AC3.-AllFilms.avi
Формат : AVI
Формат/Информация : Audio Video Interleave
Размер файла : 1,46 Гбайт
Продолжительность : 1 ч. 47 м.
Общий поток : 1937 Кбит/сек
Название фильма : Мужчины против женщин / Maschi contro femmine (2010)
Режиссёр : Shevon (HDTV 1080i)
Программа кодирования : VirtualDubMod 1.5.10.3 | www.virtualdub-fr.org || (build 2550/release)
Правообладатель : AllFilms (torrentfilm.net)
Видео
Идентификатор : 0
Формат : MPEG-4 Visual
Профиль формата : Advanced Simple@L5
Параметр BVOP формата : 1
Параметр QPel формата : Нет
Параметр GMC формата : Без точки перехода
Параметр матрицы формата : Выборочная
Идентификатор кодека : XVID
Идентификатор кодека/Подсказка : XviD
Продолжительность : 1 ч. 47 м.
Битрейт : 1543 Кбит/сек
Ширина : 720 пикселей
Высота : 304 пикселя
Соотношение сторон : 2,35:1
Частота кадров : 25,000 кадров/сек
Цветовое пространство : YUV
Субдискретизация насыщенности : 4:2:0
Битовая глубина : 8 бит
Тип развёртки : Прогрессивная
Метод сжатия : С потерями
Бит/(Пиксели*Кадры) : 0.282
Размер потока : 1,16 Гбайт (80%)
Библиотека кодирования : XviD 65
Аудио
Идентификатор : 1
Формат : AC-3
Формат/Информация : Audio Coding 3
Расширение режима : CM (complete main)
Параметр Endianness формата : Big
Идентификатор кодека : 2000
Продолжительность : 1 ч. 47 м.
Вид битрейта : Постоянный
Битрейт : 384 Кбит/сек
Каналы : 6 каналов
Расположение каналов : Front: L C R, Side: L R, LFE
Частота : 48,0 КГц
Битовая глубина : 16 бит
Метод сжатия : С потерями
Размер потока : 296 Мбайт (20%)
Выравнивание : Разделение по промежуткам
Продолжительность промежутка : 40 мс. (1,00 видеокадр)
Время предзагрузки промежутка : 500 мс.

Скриншоты


-
[Профиль] [ЛС]

Создавать темы 06-Авг-2015 23:17 (спустя 11 месяцев 23 дня)

Топик был перенесен из форума Фильмы до 2014 года в форум Фильмы до 2012 года
sergej644
 

Создавать темы 12-Июн-2016 07:54 (спустя 1 год 9 месяцев)

Топик был перенесен из форума Фильмы 2011 года в форум Фильмы 2010 года
Russian Mafia
 
Кто просматривает тему:

Форум Тема Автор Размер
Зарубежное кино (CAMRip, Telesynch, SCR) Если б я была мужчиной / Si j'étais un homme (2017) CAMRip | Р BOSS 1.37 GB
Показать сообщения:    

Текущее время: Сегодня 09:01

Часовой пояс: GMT



Вы не можете начинать темы
Вы не можете отвечать на сообщения
Вы не можете редактировать свои сообщения
Вы не можете удалять свои сообщения
Вы не можете голосовать в опросах
Вы не можете прикреплять файлы к сообщениям
Вы не можете скачивать файлы