Мужчины, женщины и дети / Men, Women & Children (Джейсон Райтман / Jason Reitman) [2014, США, драма, комедия, WEB-DLRip] MVO

 
Автор Сообщение

TorrentFilm ®

Пол:

Стаж: 2 года

Сообщений: 7741



Награды: Нет

Торрент-статистика

Создавать темы 06-Янв-2015 00:00

[Цитировать]

Мужчины, женщины и дети / Men, Women & Children
Страна: США
Жанр: драма, комедия
Год выпуска: 2014
Продолжительность: 01:59:40
Перевод: Профессиональный (многоголосый закадровый)
Cубтитры: нет
Режиссер: Джейсон Райтман / Jason Reitman
В ролях: Адам Сэндлер, Дженнифер Гарнер, Розмари ДеУитт, Джуди Грир, Дин Норрис, Эмма Томпсон, Тимоти Чаламет, Оливия Крочиккия, Кейтлин Девер, Энсел Элгорт
Описание: История о группе подростков и их родителях, которые пытаются понять, как интернет изменил их отношения, их связь, самооценку и любовь друг к другу.
Сэмпл: http://multi-up.com/1024216
Качество видео: WEB-DLRip
Формат видео: AVI
Видео: 688x384 (1.79:1), 23.976 fps, XviD build 73 ~739 kbps avg, 0.12 bit/pixel
Аудио: 48 kHz, MPEG Layer 3, 2 ch, ~128.00 kbps avg

MediaInfo

Формат : AVI
Формат/Информация : Audio Video Interleave
Размер файла : 750 Мбайт
Продолжительность : 1 ч. 59 м.
Общий поток : 877 Кбит/сек
Программа кодирования : VirtualDubMod 1.5.10.3 | www.virtualdub-fr.org || (build 2550/release)
Библиотека кодирования : VirtualDubMod build 2550/release
Видео
Идентификатор : 0
Формат : MPEG-4 Visual
Профиль формата : Advanced Simple@L5
Параметр BVOP формата : 1
Параметр QPel формата : Нет
Параметр GMC формата : Без точки перехода
Параметр матрицы формата : Выборочная
Идентификатор кодека : XVID
Идентификатор кодека/Подсказка : XviD
Продолжительность : 1 ч. 59 м.
Битрейт : 739 Кбит/сек
Ширина : 688 пикселей
Высота : 384 пикселя
Соотношение сторон : 16:9
Частота кадров : 23,976 кадра/сек
Цветовое пространство : YUV
Субдискретизация насыщенности : 4:2:0
Битовая глубина : 8 бит
Тип развёртки : Прогрессивная
Метод сжатия : С потерями
Бит/(Пиксели*Кадры) : 0.117
Размер потока : 633 Мбайт (84%)
Библиотека кодирования : XviD 73
Аудио
Идентификатор : 1
Формат : MPEG Audio
Версия формата : Version 1
Профиль формата : Layer 3
Идентификатор кодека : 55
Идентификатор кодека/Подсказка : MP3
Продолжительность : 1 ч. 59 м.
Вид битрейта : Постоянный
Битрейт : 128 Кбит/сек
Каналы : 2 канала
Частота : 48,0 КГц
Метод сжатия : С потерями
Размер потока : 110 Мбайт (15%)
Выравнивание : Соединение по промежуткам
Продолжительность промежутка : 42 мс. (1,00 видеокадр)
Время предзагрузки промежутка : 504 мс.
Библиотека кодирования : LAME3.99r
Настройки программы : -m s -V 4 -q 2 -lowpass 17 -b 128

Скриншоты

[Профиль] [ЛС]
Кто просматривает тему:

Форум Тема Автор Размер
Pop (Pop) Натали - О, Боже, какой мужчина! - 2016 [FLAC, tracks +.cue, lossless] sergej644 469 MB
50/50 (РОР) VA - Мужчины любят бла-бла-бла. Попсовый - 2015, MP3, 320 kbps Magnat 686 MB
XXXI Летние Олимпийские игры. Рио-де-Жанейро 2016 (Бразилия) XXXI Летние Олимпийские игры в Рио. Бокс. Мужчины.[52, 64, Свыше 91 кг] Женщины [75, 60 кг] (2016) SATRip достали все 2.09 GB
XXXI Летние Олимпийские игры. Рио-де-Жанейро 2016 (Бразилия) XXXI Летние Олимпийские Игры. Баскетбол. Мужчины. Полуфинал. Австралия - Сербия [Матч Игра] [19.08] (2016) HDTV 1080i BOSS 8 GB
XXXI Летние Олимпийские игры. Рио-де-Жанейро 2016 (Бразилия) XXXI Летние Олимпийские Игры. Баскетбол. Мужчины. Полуфинал. Испания - США [Матч Игра] [19.08] (2016) HDTV 1080i BOSS 7.05 GB
XXXI Летние Олимпийские игры. Рио-де-Жанейро 2016 (Бразилия) XXXI Летние Олимпийские Игры. Волейбол. Мужчины. 1/4 финала. Россия - Канада [Матч Игра HD] (2016) HDTV 1080i достали все 4.21 GB
XXXI Летние Олимпийские игры. Рио-де-Жанейро 2016 (Бразилия) XXXI Летние Олимпийские Игры. Волейбол. Мужчины. 1/4 финала. США - Польша [Матч Игра HD] (2016) HDTV 1080i от GeneralFilm BOSS 4.94 GB
XXXI Летние Олимпийские игры. Рио-де-Жанейро 2016 (Бразилия) XXXI Летние Олимпийские Игры. Рио-де-Жанейро (Бразилия). Академическая гребля. Мужчины. Женщины. Квалификация, утро [09.08] (2016) IPTV 1080i BOSS 4.86 GB
Показать сообщения:    

Текущее время: Сегодня 12:44

Часовой пояс: GMT



Вы не можете начинать темы
Вы не можете отвечать на сообщения
Вы не можете редактировать свои сообщения
Вы не можете удалять свои сообщения
Вы не можете голосовать в опросах
Вы не можете прикреплять файлы к сообщениям
Вы не можете скачивать файлы