Мужчина с гарантией (Артём Аксёненко) [2012, Россия, романтическая комедия, BDRip 720p]

 
Автор Сообщение

TorrentFilm ®

Пол:

Стаж: 2 года

Сообщений: 7741



Награды: Нет

Торрент-статистика

Создавать темы 03-Янв-2016 00:04

[Цитировать]

Мужчина с гарантией
Страна: Россия
Студия: Enjoy Movies
Жанр: комедия
Год выпуска: 2012
Продолжительность: 01:24:11
Навигация по главам: есть
Субтитры: нет
Режиссер: Артём Аксёненко
В ролях: Александр Олешко, Нонна Гришаева, Петр Федоров, Дмитрий Нагиев, Юлия Гришина, Дмитрий Шаракоис, Михаил Павлик, Сергей Походаев, Ольга Волкова, Андрей Федорцов, Екатерина Тимофеева, Юрий Никулин мл., Евгений Шиманович
Описание: В одном большом и любимом горожанами торговом центре работает охранником необычный человек. Он помогает всем вокруг: продавцам общепита и модной одежды, уборщикам и барменам в кафетерии. Он знает всё и всех, и все знают и любят его! Он словно домовой в этом огромном здании с миллионом неоновых вывесок и ярких стеклянных витрин. Ведь здесь он не только работает, но и живет полноценной жизнью — бесплатно одевается, питается в ресторанах, спит в мебельном отделе и участвует в ночных гонках на полотерах. «Какой странный персонаж!» — подумаете вы. На самом деле, у нашего героя есть хрустальная и загадочная мечта, на осуществление которой он старательно копит деньги на «зарплатной» банковской карте. Однажды в его жизни появляется стажерка, которую необходимо обучить всему, что умеет он сам. Отношения, начавшиеся как обременительная обязанность, постепенно начинают перерастать дружеские. Ну а дружба между мужчиной и женщиной вещь весьма специфическая, тут и до романтики недалеко! Однако, герой не знает одной важной детали: эта его «коллега» — владелица всего торгового центра.

Релиз: fanatus
Качество видео: BDRip 720p
Исходник: Blu-Ray (1080p)
Контейнер: MKV
Видео: MPEG-4 AVC, 3590 kbps , 1280x544 (2.35:1), 23.976 fps, 0.215 bit/pixel
Аудио: DTS, 6 ch, 48 kHz, 1510 kbps

MediaInfo

General
Unique ID : 184265168895445095052060737455342472921 (0x8AA02E3EF811602AB3FCA1E464EFCED9)
Complete name : D:\Muzhchina.s.garantiej.2012.x264.BDRip.720p.fanatus.mkv
Format : Matroska
Format version : Version 2
File size : 3.06 GiB
Duration : 1h 24mn
Overall bit rate : 5 203 Kbps
Movie name : Muzhchina s garantiey (2012) - fanatus
Encoded date : UTC 2013-05-12 18:10:19
Writing application : mkvmerge v3.4.0 ('Rapunzel') сборка от May 15 2010 09:38:20
Writing library : libebml v0.8.0 + libmatroska v0.9.0
Video
ID : 1
Format : AVC
Format/Info : Advanced Video Codec
Format profile : High@L4.1
Format settings, CABAC : Yes
Format settings, ReFrames : 10 frames
Codec ID : V_MPEG4/ISO/AVC
Duration : 1h 24mn
Bit rate : 3 590 Kbps
Width : 1 280 pixels
Height : 544 pixels
Display aspect ratio : 2.35:1
Frame rate : 23.976 fps
Color space : YUV
Chroma subsampling : 4:2:0
Bit depth : 8 bits
Scan type : Progressive
Bits/(Pixel*Frame) : 0.215
Stream size : 2.11 GiB (69%)
Title : Muzhchina s garantiey (2012)
Writing library : x264 core 132 r2323+704+51 d571b1c tMod [8-bit@all X86]
Encoding settings : cabac=1 / ref=10 / deblock=1:-3:-3 / analyse=0x3:0x113 / me=tesa / subme=11 / psy=1 / fade_compensate=0.00 / psy_rd=0.95:0.05 / mixed_ref=1 / me_range=48 / chroma_me=1 / trellis=2 / 8x8dct=1 / cqm=0 / deadzone=21,11 / fast_pskip=0 / chroma_qp_offset=-3 / threads=16 / lookahead_threads=4 / sliced_threads=0 / nr=0 / decimate=1 / interlaced=0 / bluray_compat=0 / constrained_intra=0 / fgo=0 / bframes=10 / b_pyramid=2 / b_adapt=2 / b_bias=0 / direct=3 / weightb=1 / open_gop=0 / weightp=2 / keyint=240 / keyint_min=23 / scenecut=40 / intra_refresh=0 / rc_lookahead=240 / rc=crf / mbtree=0 / crf=16.5000 / qcomp=0.75 / qpmin=0 / qpmax=51 / qpstep=3 / vbv_maxrate=50000 / vbv_bufsize=62500 / crf_max=0.0 / nal_hrd=none / ip_ratio=1.30 / pb_ratio=1.20 / aq=4:0.80 / aq-sensitivity=10.00 / aq-factor=1.00:1.00:1.00 / aq2=0 / aq3=0
Language : Russian
Default : Yes
Forced : No
Color primaries : BT.709-5, BT.1361, IEC 61966-2-4, SMPTE RP177
Transfer characteristics : BT.709-5, BT.1361
Matrix coefficients : BT.709-5, BT.1361, IEC 61966-2-4 709, SMPTE RP177
Audio
ID : 2
Format : DTS
Format/Info : Digital Theater Systems
Codec ID : A_DTS
Duration : 1h 24mn
Bit rate mode : Constant
Bit rate : 1 510 Kbps
Channel(s) : 6 channels
Channel positions : Front: L C R, Side: L R, LFE
Sampling rate : 48.0 KHz
Bit depth : 16 bits
Compression mode : Lossy
Stream size : 909 MiB (29%)
Title : Original
Language : Russian
Default : Yes
Forced : No
Menu
00:00:00.000 : en:Chapter 01
00:07:36.455 : en:Chapter 02
00:15:28.677 : en:Chapter 03
00:20:24.181 : en:Chapter 04
00:27:58.426 : en:Chapter 05
00:33:24.544 : en:Chapter 06
00:43:15.593 : en:Chapter 07
00:48:15.058 : en:Chapter 08
00:59:25.103 : en:Chapter 09
01:05:33.095 : en:Chapter 10
01:13:27.277 : en:Chapter 11
01:21:28.300 : en:Chapter 12
01:24:10.962 : en:Chapter 13

x264 [info]

x264 [info]: 1280x544p 1:1 @ 24000/1001 fps (cfr)
x264 [info]: frame I:1274 Avg QP:15.33 size: 81105
x264 [info]: frame P:28441 Avg QP:16.83 size: 33868
x264 [info]: frame B:91389 Avg QP:18.48 size: 13836
x264 [info]: consecutive B-frames: 2.8% 4.0% 10.5% 26.2% 14.5% 35.3% 3.7% 1.2% 0.8% 0.5% 0.4%
x264 [info]: mb I I16..4: 5.1% 76.8% 18.1%
x264 [info]: mb P I16..4: 0.8% 12.8% 1.7% P16..4: 29.9% 34.7% 13.6% 0.0% 0.0% skip: 6.5%
x264 [info]: mb B I16..4: 0.1% 1.7% 0.2% B16..8: 31.5% 22.9% 4.7% direct: 7.6% skip:31.4% L0:40.8% L1:40.0% BI:19.2%
x264 [info]: 8x8 transform intra:83.2% inter:61.6%
x264 [info]: direct mvs spatial:99.9% temporal:0.1%
x264 [info]: coded y,uvDC,uvAC intra: 91.4% 88.3% 71.4% inter: 28.2% 25.1% 5.2%
x264 [info]: i16 v,h,dc,p: 23% 11% 3% 64%
x264 [info]: i8 v,h,dc,ddl,ddr,vr,hd,vl,hu: 15% 9% 5% 8% 12% 13% 12% 13% 12%
x264 [info]: i4 v,h,dc,ddl,ddr,vr,hd,vl,hu: 15% 10% 3% 8% 15% 15% 13% 10% 10%
x264 [info]: i8c dc,h,v,p: 35% 23% 24% 18%
x264 [info]: Weighted P-Frames: Y:2.0% UV:1.6%
x264 [info]: ref P L0: 47.2% 11.1% 18.3% 6.0% 5.2% 3.6% 3.3% 1.8% 1.8% 1.6% 0.3% 0.0%
x264 [info]: ref B L0: 73.8% 11.9% 5.5% 2.9% 2.0% 1.7% 1.4% 0.6% 0.3%
x264 [info]: ref B L1: 93.2% 6.8%
x264 [info]: kb/s:3691.89
x264 [info]: encoded 121104 frames, 2.339 fps, 3691.89 kb/s, 2223.0 MB

Скриншот c названием фильма

[Профиль] [ЛС]
Кто просматривает тему:

Форум Тема Автор Размер
Pop (Pop) Натали - О, Боже, какой мужчина! - 2016 [FLAC, tracks +.cue, lossless] sergej644 469 MB
50/50 (РОР) VA - Мужчины любят бла-бла-бла. Попсовый - 2015, MP3, 320 kbps Magnat 686 MB
XXXI Летние Олимпийские игры. Рио-де-Жанейро 2016 (Бразилия) XXXI Летние Олимпийские игры в Рио. Бокс. Мужчины.[52, 64, Свыше 91 кг] Женщины [75, 60 кг] (2016) SATRip достали все 2.09 GB
XXXI Летние Олимпийские игры. Рио-де-Жанейро 2016 (Бразилия) XXXI Летние Олимпийские Игры. Баскетбол. Мужчины. Полуфинал. Австралия - Сербия [Матч Игра] [19.08] (2016) HDTV 1080i BOSS 8 GB
XXXI Летние Олимпийские игры. Рио-де-Жанейро 2016 (Бразилия) XXXI Летние Олимпийские Игры. Баскетбол. Мужчины. Полуфинал. Испания - США [Матч Игра] [19.08] (2016) HDTV 1080i BOSS 7.05 GB
XXXI Летние Олимпийские игры. Рио-де-Жанейро 2016 (Бразилия) XXXI Летние Олимпийские Игры. Волейбол. Мужчины. 1/4 финала. Россия - Канада [Матч Игра HD] (2016) HDTV 1080i достали все 4.21 GB
XXXI Летние Олимпийские игры. Рио-де-Жанейро 2016 (Бразилия) XXXI Летние Олимпийские Игры. Волейбол. Мужчины. 1/4 финала. США - Польша [Матч Игра HD] (2016) HDTV 1080i от GeneralFilm BOSS 4.94 GB
XXXI Летние Олимпийские игры. Рио-де-Жанейро 2016 (Бразилия) XXXI Летние Олимпийские Игры. Рио-де-Жанейро (Бразилия). Академическая гребля. Мужчины. Женщины. Квалификация, утро [09.08] (2016) IPTV 1080i BOSS 4.86 GB
Показать сообщения:    

Текущее время: Сегодня 12:32

Часовой пояс: GMT



Вы не можете начинать темы
Вы не можете отвечать на сообщения
Вы не можете редактировать свои сообщения
Вы не можете удалять свои сообщения
Вы не можете голосовать в опросах
Вы не можете прикреплять файлы к сообщениям
Вы не можете скачивать файлы