Мужчина с гарантией (Артем Аксененко) [2012, Россия, Комедия, Семейный, DVD9] + Original Rus

 
Автор Сообщение

TorrentFilm ®

Пол:

Стаж: 2 года

Сообщений: 7741



Награды: Нет

Торрент-статистика

Создавать темы 02-Янв-2016 00:01

[Цитировать]

Мужчина с гарантией- -Страна: Россия
Студия: Enjoy Movies
Жанр: Комедия, Семейный
Год выпуска: 2012
Продолжительность: 01:20:44-Перевод: Не требуется
Cубтитры: нет
Оригинальная аудиодорожка: русский-Режиссер: Артем Аксененко-В ролях: Александр Олешко, Нонна Гришаева, Петр Федоров, Дмитрий Нагиев, Юлия Гришина, Дмитрий Шаракоис, Михаил Павлик, Сергей Походаев, Ольга Волкова, Андрей Федорцов, Екатерина Тимофеева, Юрий Никулин мл., Евгений Шиманович-Описание: В одном большом и любимом горожанами торговом центре работает охранником необычный человек. Он помогает всем вокруг: продавцам общепита и модной одежды, уборщикам и барменам в кафетерии. Он знает всё и всех, и все знают и любят его! Он словно домовой в этом огромном здании с миллионом неоновых вывесок и ярких стеклянных витрин.
Ведь здесь он не только работает, но и живет полноценной жизнью — бесплатно одевается, питается в ресторанах, спит в мебельном отделе и участвует в ночных гонках на полотерах. «Какой странный персонаж!» — подумаете вы. На самом деле, у нашего героя есть хрустальная и загадочная мечта, на осуществление которой он старательно копит деньги на «зарплатной» банковской карте.
Однажды в его жизни появляется стажерка, которую необходимо обучить всему, что умеет он сам. Отношения, начавшиеся как обременительная обязанность, постепенно начинают перерастать дружеские. Ну а дружба между мужчиной и женщиной вещь весьма специфическая, тут и до романтики недалеко! Однако, герой не знает одной важной детали: эта его «коллега» — владелица всего торгового центра.-Бонусы: отсутствуют-Меню: русскоязычное-Дополнительно:: анонсы- -Тип релиза: DVD9
Контейнер: DVD-Video-Видео: MPEG 2, 720x576 (16:9), 25.000 fps, 9 800 Kbps (0.744 bit/pixel)
Аудио 1: Русский, AC-3, 48.0 KHz, 6 ch, 384 Kbps, CBR
Аудио 2: Русский, DTS, 48.0 KHz, 6 ch, 1 510 Kbps, CBR-

MI

Общее
Полное имя : D:\_torrents\Muzhchina.s.garantiej.2012.O.DVD9\VIDEO_TS\VTS_18_1.VOB
Формат : MPEG-PS
Размер файла : 1024 Мбайт
Продолжительность : 14 м.
Режим общего битрейта : Переменный
Общий поток : 9803 Кбит/сек
Видео
Идентификатор : 224 (0xE0)
Формат : MPEG Video
Версия формата : Version 2
Профиль формата : Main@Main
Параметр BVOP формата : Да
Параметр матрицы формата : Выборочная
Продолжительность : 14 м.
Вид битрейта : Переменный
Битрейт : 7714 Кбит/сек
Максимальный битрейт : 9800 Кбит/сек
Ширина : 720 пикселей
Высота : 576 пикселей
Соотношение сторон : 16:9
Частота кадров : 25,000 кадров/сек
Стандарт вещания : PAL
Цветовое пространство : YUV
Субдискретизация насыщенности : 4:2:0
Битовая глубина : 8 бит
Тип развёртки : Чересстрочная
Порядок развёртки : Верхнее поле первое
Метод сжатия : С потерями
Бит/(Пиксели*Кадры) : 0.744
Размер потока : 806 Мбайт (79%)
Аудио #1
Идентификатор : 189 (0xBD)-128 (0x80)
Формат : AC-3
Формат/Информация : Audio Coding 3
Расширение режима : CM (complete main)
Режим смешивания : DVD-Video
Продолжительность : 14 м.
Вид битрейта : Постоянный
Битрейт : 384 Кбит/сек
Каналы : 6 каналов
Расположение каналов : Front: L C R, Side: L R, LFE
Частота : 48,0 КГц
Битовая глубина : 16 бит
Метод сжатия : С потерями
Размер потока : 40,1 Мбайт (4%)
Аудио #2
Идентификатор : 189 (0xBD)-137 (0x89)
Формат : DTS
Формат/Информация : Digital Theater Systems
Режим смешивания : DVD-Video
Продолжительность : 14 м.
Вид битрейта : Постоянный
Битрейт : 1510 Кбит/сек
Каналы : 6 каналов
Расположение каналов : Front: L C R, Side: L R, LFE
Частота : 48,0 КГц
Битовая глубина : 24 бит
Метод сжатия : С потерями
Размер потока : 158 Мбайт (15%)
Меню

DVDInfo

Title: Muzhchina.s.garantiej.2012.O.DVD9
Size: 6.93 Gb ( 7 270 710,00 KBytes ) - DVD-9
Enabled regions: 1, 2, 3, 4, 5, 6, 7, 8
VTS_01 :
Play Length: 00:00:15
Video: PAL 16:9 (720x576) VBR, Auto Letterboxed
VTS_02 :
Play Length: 00:00:07
Video: PAL 16:9 (720x576) VBR, Auto Letterboxed
Audio:
Not specified (MPEG1, 2 ch)
VTS_03 :
Play Length: 00:02:01
Video: PAL 16:9 (720x576) VBR, Auto Letterboxed
Audio:
Russian (Dolby AC3, 2 ch)
VTS_04 :
Play Length: 00:02:03
Video: PAL 16:9 (720x576) VBR, Auto Letterboxed
Audio:
Russian (Dolby AC3, 2 ch)
VTS_05 :
Play Length: 00:01:25
Video: PAL 16:9 (720x576) VBR, Auto Letterboxed
Audio:
Russian (Dolby AC3, 2 ch)
Russian (Dolby AC3, 2 ch)
VTS_06 :
Play Length: 00:02:01
Video: PAL 16:9 (720x576) VBR, Auto Letterboxed
Audio:
Russian (Dolby AC3, 2 ch)
Russian (Dolby AC3, 2 ch)
VTS_07 :
Play Length: 00:02:32
Video: PAL 16:9 (720x576) VBR, Auto Letterboxed
Audio:
Russian (Dolby AC3, 2 ch)
Russian (Dolby AC3, 2 ch)
VTS_08 :
Play Length: 00:02:03
Video: PAL 16:9 (720x576) VBR, Auto Letterboxed
Audio:
Russian (Dolby AC3, 2 ch)
Russian (Dolby AC3, 2 ch)
VTS_09 :
Play Length: 00:02:00
Video: PAL 16:9 (720x576) VBR, Auto Letterboxed
Audio:
Russian (Dolby AC3, 2 ch)
Russian (Dolby AC3, 2 ch)
VTS_10 :
Play Length: 00:02:18
Video: PAL 16:9 (720x576) VBR, Auto Letterboxed
Audio:
Russian (Dolby AC3, 2 ch)
Russian (Dolby AC3, 2 ch)
VTS_11 :
Play Length: 00:01:40
Video: PAL 16:9 (720x576) VBR, Auto Letterboxed
Audio:
Russian (Dolby AC3, 2 ch)
Russian (Dolby AC3, 2 ch)
VTS_12 :
Play Length: 00:02:27
Video: PAL 16:9 (720x576) VBR, Auto Letterboxed
Audio:
Russian (Dolby AC3, 2 ch)
Russian (Dolby AC3, 2 ch)
VTS_13 :
Play Length: 00:01:56
Video: PAL 16:9 (720x576) VBR, Auto Letterboxed
Audio:
Russian (Dolby AC3, 2 ch)
Russian (Dolby AC3, 2 ch)
VTS_14 :
Play Length: 00:02:24
Video: PAL 16:9 (720x576) VBR, Auto Letterboxed
Audio:
Russian (Dolby AC3, 2 ch)
Russian (Dolby AC3, 2 ch)
VTS_15 :
Play Length: 00:01:50
Video: PAL 16:9 (720x576) VBR, Auto Letterboxed
Audio:
Russian (Dolby AC3, 2 ch)
Russian (Dolby AC3, 2 ch)
VTS_16 :
Play Length: 00:02:18
Video: PAL 16:9 (720x576) VBR, Auto Letterboxed
Audio:
Russian (Dolby AC3, 2 ch)
Russian (Dolby AC3, 2 ch)
VTS_17 :
Play Length: 00:02:31
Video: PAL 16:9 (720x576) VBR, Auto Letterboxed
Audio:
Russian (Dolby AC3, 2 ch)
Russian (Dolby AC3, 2 ch)
VTS_18 :
Play Length: 01:20:44
Video: PAL 16:9 (720x576) VBR, Auto Pan&Scan, Auto Letterboxed
Audio:
Russian (Dolby AC3, 6 ch)
Russian (DTS, 5 ch)

Скриншоты

Скриншоты меню

[Профиль] [ЛС]
Кто просматривает тему:

Форум Тема Автор Размер
Pop (Pop) Натали - О, Боже, какой мужчина! - 2016 [FLAC, tracks +.cue, lossless] sergej644 469 MB
50/50 (РОР) VA - Мужчины любят бла-бла-бла. Попсовый - 2015, MP3, 320 kbps Magnat 686 MB
XXXI Летние Олимпийские игры. Рио-де-Жанейро 2016 (Бразилия) XXXI Летние Олимпийские игры в Рио. Бокс. Мужчины.[52, 64, Свыше 91 кг] Женщины [75, 60 кг] (2016) SATRip достали все 2.09 GB
XXXI Летние Олимпийские игры. Рио-де-Жанейро 2016 (Бразилия) XXXI Летние Олимпийские Игры. Баскетбол. Мужчины. Полуфинал. Австралия - Сербия [Матч Игра] [19.08] (2016) HDTV 1080i BOSS 8 GB
XXXI Летние Олимпийские игры. Рио-де-Жанейро 2016 (Бразилия) XXXI Летние Олимпийские Игры. Баскетбол. Мужчины. Полуфинал. Испания - США [Матч Игра] [19.08] (2016) HDTV 1080i BOSS 7.05 GB
XXXI Летние Олимпийские игры. Рио-де-Жанейро 2016 (Бразилия) XXXI Летние Олимпийские Игры. Волейбол. Мужчины. 1/4 финала. Россия - Канада [Матч Игра HD] (2016) HDTV 1080i достали все 4.21 GB
XXXI Летние Олимпийские игры. Рио-де-Жанейро 2016 (Бразилия) XXXI Летние Олимпийские Игры. Волейбол. Мужчины. 1/4 финала. США - Польша [Матч Игра HD] (2016) HDTV 1080i от GeneralFilm BOSS 4.94 GB
XXXI Летние Олимпийские игры. Рио-де-Жанейро 2016 (Бразилия) XXXI Летние Олимпийские Игры. Рио-де-Жанейро (Бразилия). Академическая гребля. Мужчины. Женщины. Квалификация, утро [09.08] (2016) IPTV 1080i BOSS 4.86 GB
Показать сообщения:    

Текущее время: Сегодня 12:32

Часовой пояс: GMT



Вы не можете начинать темы
Вы не можете отвечать на сообщения
Вы не можете редактировать свои сообщения
Вы не можете удалять свои сообщения
Вы не можете голосовать в опросах
Вы не можете прикреплять файлы к сообщениям
Вы не можете скачивать файлы