Мужчина с гарантией (Артём Аксёненко) [2012, Россия, романтическая комедия, BDRip 1080p]

 
Автор Сообщение

TorrentFilm ®

Пол:

Стаж: 2 года

Сообщений: 7741



Награды: Нет

Торрент-статистика

Создавать темы 01-Янв-2016 00:13

[Цитировать]

Мужчина с гарантией
Страна: Россия
Студия: Enjoy Movies
Жанр: комедия
Год выпуска: 2012
Продолжительность: 01:24:11
Навигация по главам: есть
Субтитры: нет
Режиссер: Артём Аксёненко
В ролях: Александр Олешко, Нонна Гришаева, Петр Федоров, Дмитрий Нагиев, Юлия Гришина, Дмитрий Шаракоис, Михаил Павлик, Сергей Походаев, Ольга Волкова, Андрей Федорцов, Екатерина Тимофеева, Юрий Никулин мл., Евгений Шиманович
Описание: В одном большом и любимом горожанами торговом центре работает охранником необычный человек. Он помогает всем вокруг: продавцам общепита и модной одежды, уборщикам и барменам в кафетерии. Он знает всё и всех, и все знают и любят его! Он словно домовой в этом огромном здании с миллионом неоновых вывесок и ярких стеклянных витрин. Ведь здесь он не только работает, но и живет полноценной жизнью — бесплатно одевается, питается в ресторанах, спит в мебельном отделе и участвует в ночных гонках на полотерах. «Какой странный персонаж!» — подумаете вы. На самом деле, у нашего героя есть хрустальная и загадочная мечта, на осуществление которой он старательно копит деньги на «зарплатной» банковской карте. Однажды в его жизни появляется стажерка, которую необходимо обучить всему, что умеет он сам. Отношения, начавшиеся как обременительная обязанность, постепенно начинают перерастать дружеские. Ну а дружба между мужчиной и женщиной вещь весьма специфическая, тут и до романтики недалеко! Однако, герой не знает одной важной детали: эта его «коллега» — владелица всего торгового центра.

Релиз: fanatus
Качество видео: BDRip 1080p
Исходник: Blu-Ray (1080p)
Контейнер: MKV
Видео: MPEG-4 AVC, 7903 kbps , 1916x814 (2.35:1), 23.976 fps, 0.211 bit/pixel
Аудио: DTS, 6 ch, 48 kHz, 1510 kbps

MediaInfo

General
Unique ID : 244518178149491254594963296124526674324 (0xB7F47CF5BA5E85E2B17D95794FB44194)
Complete name : D:\Muzhchina.s.garantiej.2012.x264.BDRip.1080p.fanatus.mkv
Format : Matroska
Format version : Version 2
File size : 5.65 GiB
Duration : 1h 24mn
Overall bit rate : 9 604 Kbps
Movie name : Muzhchina s garantiey (2012) - fanatus
Encoded date : UTC 2013-05-12 17:53:11
Writing application : mkvmerge v3.4.0 ('Rapunzel') сборка от May 15 2010 09:38:20
Writing library : libebml v0.8.0 + libmatroska v0.9.0
Video
ID : 1
Format : AVC
Format/Info : Advanced Video Codec
Format profile : High@L4.1
Format settings, CABAC : Yes
Format settings, ReFrames : 5 frames
Codec ID : V_MPEG4/ISO/AVC
Duration : 1h 24mn
Bit rate : 7 903 Kbps
Width : 1 916 pixels
Height : 814 pixels
Display aspect ratio : 2.35:1
Frame rate : 23.976 fps
Color space : YUV
Chroma subsampling : 4:2:0
Bit depth : 8 bits
Scan type : Progressive
Bits/(Pixel*Frame) : 0.211
Stream size : 4.65 GiB (82%)
Title : Muzhchina s garantiey (2012)
Writing library : x264 core 132 r2323+704+51 d571b1c tMod [8-bit@all X86]
Encoding settings : cabac=1 / ref=5 / deblock=1:-3:-3 / analyse=0x3:0x113 / me=umh / subme=11 / psy=1 / fade_compensate=0.00 / psy_rd=0.95:0.00 / mixed_ref=1 / me_range=48 / chroma_me=1 / trellis=2 / 8x8dct=1 / cqm=0 / deadzone=21,11 / fast_pskip=0 / chroma_qp_offset=-2 / threads=16 / lookahead_threads=2 / sliced_threads=0 / nr=0 / decimate=1 / interlaced=0 / bluray_compat=0 / constrained_intra=0 / fgo=0 / bframes=8 / b_pyramid=2 / b_adapt=2 / b_bias=0 / direct=3 / weightb=1 / open_gop=0 / weightp=2 / keyint=240 / keyint_min=23 / scenecut=40 / intra_refresh=0 / rc_lookahead=240 / rc=crf / mbtree=0 / crf=16.5000 / qcomp=0.75 / qpmin=0 / qpmax=51 / qpstep=3 / vbv_maxrate=50000 / vbv_bufsize=62500 / crf_max=0.0 / nal_hrd=none / ip_ratio=1.30 / pb_ratio=1.20 / aq=4:0.85 / aq-sensitivity=10.00 / aq-factor=1.00:1.00:1.00 / aq2=0 / aq3=0
Language : Russian
Default : Yes
Forced : No
Color primaries : BT.709-5, BT.1361, IEC 61966-2-4, SMPTE RP177
Transfer characteristics : BT.709-5, BT.1361
Matrix coefficients : BT.709-5, BT.1361, IEC 61966-2-4 709, SMPTE RP177
Audio
ID : 2
Format : DTS
Format/Info : Digital Theater Systems
Codec ID : A_DTS
Duration : 1h 24mn
Bit rate mode : Constant
Bit rate : 1 510 Kbps
Channel(s) : 6 channels
Channel positions : Front: L C R, Side: L R, LFE
Sampling rate : 48.0 KHz
Bit depth : 16 bits
Compression mode : Lossy
Stream size : 909 MiB (16%)
Title : Original
Language : Russian
Default : Yes
Forced : No
Menu
00:00:00.000 : en:Chapter 01
00:07:36.455 : en:Chapter 02
00:15:28.677 : en:Chapter 03
00:20:24.181 : en:Chapter 04
00:27:58.426 : en:Chapter 05
00:33:24.544 : en:Chapter 06
00:43:15.593 : en:Chapter 07
00:48:15.058 : en:Chapter 08
00:59:25.103 : en:Chapter 09
01:05:33.095 : en:Chapter 10
01:13:27.277 : en:Chapter 11
01:21:28.300 : en:Chapter 12
01:24:10.962 : en:Chapter 13

x264 [info]

x264 [info]: 1916x814p 1:1 @ 24000/1001 fps (cfr)
x264 [info]: frame I:1240 Avg QP:14.48 size:143217
x264 [info]: frame P:26346 Avg QP:15.78 size: 70883
x264 [info]: frame B:93518 Avg QP:17.38 size: 32765
x264 [info]: consecutive B-frames: 2.2% 2.9% 9.3% 19.3% 10.6% 50.4% 3.1% 1.1% 1.1%
x264 [info]: mb I I16..4: 6.1% 81.0% 12.9%
x264 [info]: mb P I16..4: 1.4% 16.5% 1.7% P16..4: 28.1% 35.7% 10.8% 0.0% 0.0% skip: 5.8%
x264 [info]: mb B I16..4: 0.2% 2.3% 0.2% B16..8: 34.4% 24.8% 4.3% direct: 8.1% skip:25.8% L0:42.1% L1:42.1% BI:15.8%
x264 [info]: 8x8 transform intra:84.4% inter:64.0%
x264 [info]: direct mvs spatial:100.0% temporal:0.0%
x264 [info]: coded y,uvDC,uvAC intra: 88.9% 83.0% 62.4% inter: 32.8% 27.2% 3.6%
x264 [info]: i16 v,h,dc,p: 25% 9% 3% 63%
x264 [info]: i8 v,h,dc,ddl,ddr,vr,hd,vl,hu: 13% 8% 5% 9% 13% 14% 12% 14% 12%
x264 [info]: i4 v,h,dc,ddl,ddr,vr,hd,vl,hu: 15% 9% 5% 8% 16% 15% 13% 10% 10%
x264 [info]: i8c dc,h,v,p: 32% 25% 23% 21%
x264 [info]: Weighted P-Frames: Y:1.8% UV:1.5%
x264 [info]: ref P L0: 50.1% 9.6% 22.3% 9.1% 8.0% 0.8% 0.0%
x264 [info]: ref B L0: 77.2% 16.2% 5.2% 1.4%
x264 [info]: ref B L1: 92.7% 7.3%
x264 [info]: kb/s:8092.12
x264 [info]: encoded 121104 frames, 4.289 fps, 8092.13 kb/s, 4872.5 MB

Скриншот c названием фильма

[Профиль] [ЛС]
Кто просматривает тему:

Форум Тема Автор Размер
Pop (Pop) Натали - О, Боже, какой мужчина! - 2016 [FLAC, tracks +.cue, lossless] sergej644 469 MB
50/50 (РОР) VA - Мужчины любят бла-бла-бла. Попсовый - 2015, MP3, 320 kbps Magnat 686 MB
XXXI Летние Олимпийские игры. Рио-де-Жанейро 2016 (Бразилия) XXXI Летние Олимпийские игры в Рио. Бокс. Мужчины.[52, 64, Свыше 91 кг] Женщины [75, 60 кг] (2016) SATRip достали все 2.09 GB
XXXI Летние Олимпийские игры. Рио-де-Жанейро 2016 (Бразилия) XXXI Летние Олимпийские Игры. Баскетбол. Мужчины. Полуфинал. Австралия - Сербия [Матч Игра] [19.08] (2016) HDTV 1080i BOSS 8 GB
XXXI Летние Олимпийские игры. Рио-де-Жанейро 2016 (Бразилия) XXXI Летние Олимпийские Игры. Баскетбол. Мужчины. Полуфинал. Испания - США [Матч Игра] [19.08] (2016) HDTV 1080i BOSS 7.05 GB
XXXI Летние Олимпийские игры. Рио-де-Жанейро 2016 (Бразилия) XXXI Летние Олимпийские Игры. Волейбол. Мужчины. 1/4 финала. Россия - Канада [Матч Игра HD] (2016) HDTV 1080i достали все 4.21 GB
XXXI Летние Олимпийские игры. Рио-де-Жанейро 2016 (Бразилия) XXXI Летние Олимпийские Игры. Волейбол. Мужчины. 1/4 финала. США - Польша [Матч Игра HD] (2016) HDTV 1080i от GeneralFilm BOSS 4.94 GB
XXXI Летние Олимпийские игры. Рио-де-Жанейро 2016 (Бразилия) XXXI Летние Олимпийские Игры. Рио-де-Жанейро (Бразилия). Академическая гребля. Мужчины. Женщины. Квалификация, утро [09.08] (2016) IPTV 1080i BOSS 4.86 GB
Показать сообщения:    

Текущее время: Сегодня 10:59

Часовой пояс: GMT



Вы не можете начинать темы
Вы не можете отвечать на сообщения
Вы не можете редактировать свои сообщения
Вы не можете удалять свои сообщения
Вы не можете голосовать в опросах
Вы не можете прикреплять файлы к сообщениям
Вы не можете скачивать файлы